HDTV Mariah Carey - We Belong Together (At Home in Concert With Matt Lauer) [HDTV-1080i]-Angel

NCURBAN

Well-Known Member
Administrative
May 25, 2016
3,347
3,634
113
Mariah Carey - We Belong Together (At Home in Concert With Matt Lauer) [HDTV-1080i]-Angel


Code:
Format                                   : MPEG-TS
File size                                : 402 MiB
Duration                                 : 3mn 36s
Overall bit rate mode                    : Variable
Overall bit rate                         : 15.5 Mbps
Law rating                               : TV-PG

Video
ID                                       : 3361 (0xD21)
Menu ID                                  : 1 (0x1)
Format                                   : MPEG Video
Format version                           : Version 2
Format profile                           : Main@High
Format settings, BVOP                    : Yes
Format settings, Matrix                  : Custom
Format settings, GOP                     : Variable
Format settings, picture structure       : Frame
Codec ID                                 : 2
Duration                                 : 3mn 36s
Bit rate mode                            : Variable
Bit rate                                 : 14.4 Mbps
Maximum bit rate                         : 24.0 Mbps
Width                                    : 1 920 pixels
Height                                   : 1 080 pixels
Display aspect ratio                     : 16:9
Active Format Description                : Full frame 16:9 image
Frame rate                               : 29.970 fps
Color space                              : YUV
Chroma subsampling                       : 4:2:0
Bit depth                                : 8 bits
Scan type                                : Interlaced
Scan order                               : Top Field First
Compression mode                         : Lossy
Bits/(Pixel*Frame)                       : 0.232
Time code of first frame                 : 00:00:00;00
Time code source                         : Group of pictures header
GOP, Open/Closed                         : Open
GOP, Open/Closed of first frame          : Closed
Stream size                              : 371 MiB (92%)

Audio
ID                                       : 3362 (0xD22)
Menu ID                                  : 1 (0x1)
Format                                   : AC-3
Format/Info                              : Audio Coding 3
Mode extension                           : CM (complete main)
Format settings, Endianness              : Big
Codec ID                                 : 129
Duration                                 : 3mn 36s
Bit rate mode                            : Constant
Bit rate                                 : 384 Kbps
Channel(s)                               : 6 channels
Channel positions                        : Front: L C R, Side: L R, LFE
Sampling rate                            : 48.0 KHz
Compression mode                         : Lossy
Delay relative to video                  : 21ms
Stream size                              : 9.91 MiB (2%)
Language                                 : English

Download
[HIDE-REPLY]MEGA[/HIDE-REPLY]
 

saviomadoka

New Member
Registered
Nov 12, 2019
1
0
1
22
Mariah Carey - We Belong Together (At Home in Concert With Matt Lauer) [HDTV-1080i]-Angel


Code:
Format                                   : MPEG-TS
File size                                : 402 MiB
Duration                                 : 3mn 36s
Overall bit rate mode                    : Variable
Overall bit rate                         : 15.5 Mbps
Law rating                               : TV-PG

Video
ID                                       : 3361 (0xD21)
Menu ID                                  : 1 (0x1)
Format                                   : MPEG Video
Format version                           : Version 2
Format profile                           : Main@High
Format settings, BVOP                    : Yes
Format settings, Matrix                  : Custom
Format settings, GOP                     : Variable
Format settings, picture structure       : Frame
Codec ID                                 : 2
Duration                                 : 3mn 36s
Bit rate mode                            : Variable
Bit rate                                 : 14.4 Mbps
Maximum bit rate                         : 24.0 Mbps
Width                                    : 1 920 pixels
Height                                   : 1 080 pixels
Display aspect ratio                     : 16:9
Active Format Description                : Full frame 16:9 image
Frame rate                               : 29.970 fps
Color space                              : YUV
Chroma subsampling                       : 4:2:0
Bit depth                                : 8 bits
Scan type                                : Interlaced
Scan order                               : Top Field First
Compression mode                         : Lossy
Bits/(Pixel*Frame)                       : 0.232
Time code of first frame                 : 00:00:00;00
Time code source                         : Group of pictures header
GOP, Open/Closed                         : Open
GOP, Open/Closed of first frame          : Closed
Stream size                              : 371 MiB (92%)

Audio
ID                                       : 3362 (0xD22)
Menu ID                                  : 1 (0x1)
Format                                   : AC-3
Format/Info                              : Audio Coding 3
Mode extension                           : CM (complete main)
Format settings, Endianness              : Big
Codec ID                                 : 129
Duration                                 : 3mn 36s
Bit rate mode                            : Constant
Bit rate                                 : 384 Kbps
Channel(s)                               : 6 channels
Channel positions                        : Front: L C R, Side: L R, LFE
Sampling rate                            : 48.0 KHz
Compression mode                         : Lossy
Delay relative to video                  : 21ms
Stream size                              : 9.91 MiB (2%)
Language                                 : English

Download
***Hidden content cannot be quoted.***
obrigado
 

Brian Manson

New Member
Registered
Oct 10, 2019
10
0
1
17
Mariah Carey - We Belong Together (At Home in Concert With Matt Lauer) [HDTV-1080i]-Angel


Code:
Format                                   : MPEG-TS
File size                                : 402 MiB
Duration                                 : 3mn 36s
Overall bit rate mode                    : Variable
Overall bit rate                         : 15.5 Mbps
Law rating                               : TV-PG

Video
ID                                       : 3361 (0xD21)
Menu ID                                  : 1 (0x1)
Format                                   : MPEG Video
Format version                           : Version 2
Format profile                           : Main@High
Format settings, BVOP                    : Yes
Format settings, Matrix                  : Custom
Format settings, GOP                     : Variable
Format settings, picture structure       : Frame
Codec ID                                 : 2
Duration                                 : 3mn 36s
Bit rate mode                            : Variable
Bit rate                                 : 14.4 Mbps
Maximum bit rate                         : 24.0 Mbps
Width                                    : 1 920 pixels
Height                                   : 1 080 pixels
Display aspect ratio                     : 16:9
Active Format Description                : Full frame 16:9 image
Frame rate                               : 29.970 fps
Color space                              : YUV
Chroma subsampling                       : 4:2:0
Bit depth                                : 8 bits
Scan type                                : Interlaced
Scan order                               : Top Field First
Compression mode                         : Lossy
Bits/(Pixel*Frame)                       : 0.232
Time code of first frame                 : 00:00:00;00
Time code source                         : Group of pictures header
GOP, Open/Closed                         : Open
GOP, Open/Closed of first frame          : Closed
Stream size                              : 371 MiB (92%)

Audio
ID                                       : 3362 (0xD22)
Menu ID                                  : 1 (0x1)
Format                                   : AC-3
Format/Info                              : Audio Coding 3
Mode extension                           : CM (complete main)
Format settings, Endianness              : Big
Codec ID                                 : 129
Duration                                 : 3mn 36s
Bit rate mode                            : Constant
Bit rate                                 : 384 Kbps
Channel(s)                               : 6 channels
Channel positions                        : Front: L C R, Side: L R, LFE
Sampling rate                            : 48.0 KHz
Compression mode                         : Lossy
Delay relative to video                  : 21ms
Stream size                              : 9.91 MiB (2%)
Language                                 : English

Download
***Hidden content cannot be quoted.***
thanks
 

heinhtet

New Member
Registered
Dec 31, 2019
20
0
1
40
Mariah Carey - We Belong Together (At Home in Concert With Matt Lauer) [HDTV-1080i]-Angel


Code:
Format                                   : MPEG-TS
File size                                : 402 MiB
Duration                                 : 3mn 36s
Overall bit rate mode                    : Variable
Overall bit rate                         : 15.5 Mbps
Law rating                               : TV-PG

Video
ID                                       : 3361 (0xD21)
Menu ID                                  : 1 (0x1)
Format                                   : MPEG Video
Format version                           : Version 2
Format profile                           : Main@High
Format settings, BVOP                    : Yes
Format settings, Matrix                  : Custom
Format settings, GOP                     : Variable
Format settings, picture structure       : Frame
Codec ID                                 : 2
Duration                                 : 3mn 36s
Bit rate mode                            : Variable
Bit rate                                 : 14.4 Mbps
Maximum bit rate                         : 24.0 Mbps
Width                                    : 1 920 pixels
Height                                   : 1 080 pixels
Display aspect ratio                     : 16:9
Active Format Description                : Full frame 16:9 image
Frame rate                               : 29.970 fps
Color space                              : YUV
Chroma subsampling                       : 4:2:0
Bit depth                                : 8 bits
Scan type                                : Interlaced
Scan order                               : Top Field First
Compression mode                         : Lossy
Bits/(Pixel*Frame)                       : 0.232
Time code of first frame                 : 00:00:00;00
Time code source                         : Group of pictures header
GOP, Open/Closed                         : Open
GOP, Open/Closed of first frame          : Closed
Stream size                              : 371 MiB (92%)

Audio
ID                                       : 3362 (0xD22)
Menu ID                                  : 1 (0x1)
Format                                   : AC-3
Format/Info                              : Audio Coding 3
Mode extension                           : CM (complete main)
Format settings, Endianness              : Big
Codec ID                                 : 129
Duration                                 : 3mn 36s
Bit rate mode                            : Constant
Bit rate                                 : 384 Kbps
Channel(s)                               : 6 channels
Channel positions                        : Front: L C R, Side: L R, LFE
Sampling rate                            : 48.0 KHz
Compression mode                         : Lossy
Delay relative to video                  : 21ms
Stream size                              : 9.91 MiB (2%)
Language                                 : English

Download
***Hidden content cannot be quoted.***
thks