HDTV Maroon 5 - Cold (The Tonight Show Starring Jimmy Fallon 2017) [HDTV-1080i]-HDMania

NCURBAN

Well-Known Member
Administrative
May 25, 2016
3,347
3,893
113
Maroon 5 - Cold (The Tonight Show Starring Jimmy Fallon 2017) [HDTV-1080i]-HDMania


Gener: Pop
Live At: The Tonight Show Starring Jimmy Fallon
Date: 14th March 2017
Code:
[LEFT]Format                                   : MPEG-TS
File size                                : 380 MiB
Duration                                 : 4 min 0 s
Overall bit rate mode                    : Variable
Overall bit rate                         : 13.3 Mb/s

Video
ID                                       : 1312 (0x520)
Menu ID                                  : 1320 (0x528)
Format                                   : AVC
Format/Info                              : Advanced Video Codec
Format profile                           : High@L4
Format settings, CABAC                   : Yes
Format settings, ReFrames                : 4 frames
Codec ID                                 : 27
Duration                                 : 4 min 2 s
Bit rate                                 : 12.2 Mb/s
Width                                    : 1 920 pixels
Height                                   : 1 080 pixels
Display aspect ratio                     : 16:9
Frame rate                               : 29.970 (30000/1001) FPS
Color space                              : YUV
Chroma subsampling                       : 4:2:0
Bit depth                                : 8 bits
Scan type                                : MBAFF
Scan type, store method                  : Interleaved fields
Scan order                               : Top Field First
Bits/(Pixel*Frame)                       : 0.197
Stream size                              : 354 MiB (93%)

Audio
ID                                       : 1313 (0x521)
Menu ID                                  : 1320 (0x528)
Format                                   : AC-3
Format/Info                              : Audio Coding 3
Mode extension                           : CM (complete main)
Format settings, Endianness              : Big
Codec ID                                 : 129
Duration                                 : 4 min 2 s
Bit rate mode                            : Constant
Bit rate                                 : 384 kb/s
Channel(s)                               : 6 channels
Channel positions                        : Front: L C R, Side: L R, LFE
Sampling rate                            : 48.0 kHz
Frame rate                               : 31.250 FPS (1536 spf)
Bit depth                                : 16 bits
Compression mode                         : Lossy
Stream size                              : 11.1 MiB (3%)
Language                                 : English[/LEFT]
Download
You must reply before you can see the hidden data contained here.