1. If this is your first visit, be sure to check out the FAQ by clicking the link above. You may have to register before you can access the full forum. Follow the link above to Register. To start viewing messages, select the forum that you want to visit from the selection below.
    Dismiss Notice

FEED Maroon 5 - Rock In Rio Lisboa 2016 (FEED 1080i)-HDMania

Discussion in 'Live Performances & Concerts' started by NCURBAN, Jun 1, 2016.

  1. NCURBAN

    NCURBAN Well-Known Member Administrative

    Joined:
    May 25, 2016
    Messages:
    2,720
    Likes Received:
    959
    Trophy Points:
    113
    Maroon 5 - Rock In Rio Lisboa 2016 (FEED 1080i)-HDMania

    [​IMG]

    Setlist:

    1. Animals
    2. One More Night
    3. Stereo Hearts (Gym Class Heroes cover)
    4. Harder to Breathe
    5. Lucky Strike
    6. Wake Up Call
    7. Love Somebody
    8. Maps
    9. This Love
    10. Sunday Morning (Introduced the band while… more )
    11. Payphone
    12. Daylight
    13. Encore:
    14. Lost Stars (Adam Levine song)
    15. She Will Be Loved
    16. Moves Like Jagger
    17. Sugar
    Code:
    Format                                   : MPEG-TS
    File size                                : 9.46 GiB
    Duration                                 : 1h 28mn
    Overall bit rate mode                    : Variable
    Overall bit rate                         : 15.4 Mbps
    
    Video
    ID                                       : 512 (0x200)
    Menu ID                                  : 1 (0x1)
    Format                                   : AVC
    Format/Info                              : Advanced Video Codec
    Format profile                           : Main@L4
    Format settings, CABAC                   : Yes
    Format settings, ReFrames                : 4 frames
    Format settings, GOP                     : M=3, N=15
    Codec ID                                 : 27
    Duration                                 : 1h 28mn
    Bit rate mode                            : Variable
    Bit rate                                 : 14.2 Mbps
    Maximum bit rate                         : 14.5 Mbps
    Width                                    : 1 920 pixels
    Height                                   : 1 080 pixels
    Display aspect ratio                     : 16:9
    Frame rate                               : 25.000 fps
    Standard                                 : PAL
    Color space                              : YUV
    Chroma subsampling                       : 4:2:0
    Bit depth                                : 8 bits
    Scan type                                : Interlaced
    Scan order                               : Top Field First
    Bits/(Pixel*Frame)                       : 0.274
    Stream size                              : 8.75 GiB (93%)
    Color range                              : Limited
    Color primaries                          : BT.709
    Transfer characteristics                 : BT.709
    Matrix coefficients                      : BT.709
    
    Audio
    ID                                       : 4112 (0x1010)
    Menu ID                                  : 1 (0x1)
    Format                                   : MPEG Audio
    Format version                           : Version 1
    Format profile                           : Layer 2
    Mode                                     : Dual mono
    Codec ID                                 : 4
    Duration                                 : 1h 28mn
    Bit rate mode                            : Constant
    Bit rate                                 : 384 Kbps
    Channel(s)                               : 2 channels
    Sampling rate                            : 48.0 KHz
    Compression mode                         : Lossy
    Delay relative to video                  : 11ms
    Stream size                              : 242 MiB (2%)
    Language                                 : Italian
    Language, more info                      : Clean effects

    Download
    Hidden Content:
    You must reply before you can see the hidden data contained here.
    [/LEFT]
     
    Last edited: Jun 13, 2016
    andrewhayes likes this.
  2. Loading...


  3. Phill

    Phill Member Registered

    Joined:
    Mar 24, 2019
    Messages:
    41
    Likes Received:
    0
    Trophy Points:
    6
    muchas gracias por los videos
     
  4. Charlie

    Charlie New Member Registered

    Joined:
    Jan 9, 2019
    Messages:
    2
    Likes Received:
    0
    Trophy Points:
    1
    Great, thanks
     
  5. andrewhayes

    andrewhayes New Member Registered

    Joined:
    Jun 6, 2019
    Messages:
    6
    Likes Received:
    0
    Trophy Points:
    1
    Thank you for sharing.