FEED Maroon 5 - Rock In Rio Lisboa 2016 (FEED 1080i)-HDMania

NCURBAN

Well-Known Member
Administrative
May 25, 2016
3,358
4,092
113
Maroon 5 - Rock In Rio Lisboa 2016 (FEED 1080i)-HDMania


Setlist:

  1. Animals
  2. One More Night
  3. Stereo Hearts (Gym Class Heroes cover)
  4. Harder to Breathe
  5. Lucky Strike
  6. Wake Up Call
  7. Love Somebody
  8. Maps
  9. This Love
  10. Sunday Morning (Introduced the band while… more )
  11. Payphone
  12. Daylight
  13. Encore:
  14. Lost Stars (Adam Levine song)
  15. She Will Be Loved
  16. Moves Like Jagger
  17. Sugar
Code:
Format                                   : MPEG-TS
File size                                : 9.46 GiB
Duration                                 : 1h 28mn
Overall bit rate mode                    : Variable
Overall bit rate                         : 15.4 Mbps

Video
ID                                       : 512 (0x200)
Menu ID                                  : 1 (0x1)
Format                                   : AVC
Format/Info                              : Advanced Video Codec
Format profile                           : Main@L4
Format settings, CABAC                   : Yes
Format settings, ReFrames                : 4 frames
Format settings, GOP                     : M=3, N=15
Codec ID                                 : 27
Duration                                 : 1h 28mn
Bit rate mode                            : Variable
Bit rate                                 : 14.2 Mbps
Maximum bit rate                         : 14.5 Mbps
Width                                    : 1 920 pixels
Height                                   : 1 080 pixels
Display aspect ratio                     : 16:9
Frame rate                               : 25.000 fps
Standard                                 : PAL
Color space                              : YUV
Chroma subsampling                       : 4:2:0
Bit depth                                : 8 bits
Scan type                                : Interlaced
Scan order                               : Top Field First
Bits/(Pixel*Frame)                       : 0.274
Stream size                              : 8.75 GiB (93%)
Color range                              : Limited
Color primaries                          : BT.709
Transfer characteristics                 : BT.709
Matrix coefficients                      : BT.709

Audio
ID                                       : 4112 (0x1010)
Menu ID                                  : 1 (0x1)
Format                                   : MPEG Audio
Format version                           : Version 1
Format profile                           : Layer 2
Mode                                     : Dual mono
Codec ID                                 : 4
Duration                                 : 1h 28mn
Bit rate mode                            : Constant
Bit rate                                 : 384 Kbps
Channel(s)                               : 2 channels
Sampling rate                            : 48.0 KHz
Compression mode                         : Lossy
Delay relative to video                  : 11ms
Stream size                              : 242 MiB (2%)
Language                                 : Italian
Language, more info                      : Clean effects

Download
[HIDE-REPLY]MEGA
MEGA
MEGA
MEGA[/HIDE-REPLY][/LEFT]
 
Last edited:
  • Like
Reactions: andrewhayes

Charlie

New Member
Registered
Jan 9, 2019
2
0
1
31
Great, thanks
Maroon 5 - Rock In Rio Lisboa 2016 (FEED 1080i)-HDMania


Setlist:


  1. Animals
    One More Night
    Stereo Hearts (Gym Class Heroes cover)
    Harder to Breathe
    Lucky Strike
    Wake Up Call
    Love Somebody
    Maps
    This Love
    Sunday Morning (Introduced the band while… more )
    Payphone
    Daylight
    Encore:
    Lost Stars (Adam Levine song)
    She Will Be Loved
    Moves Like Jagger
    Sugar
Code:
Format                                   : MPEG-TS
File size                                : 9.46 GiB
Duration                                 : 1h 28mn
Overall bit rate mode                    : Variable
Overall bit rate                         : 15.4 Mbps

Video
ID                                       : 512 (0x200)
Menu ID                                  : 1 (0x1)
Format                                   : AVC
Format/Info                              : Advanced Video Codec
Format profile                           : Main@L4
Format settings, CABAC                   : Yes
Format settings, ReFrames                : 4 frames
Format settings, GOP                     : M=3, N=15
Codec ID                                 : 27
Duration                                 : 1h 28mn
Bit rate mode                            : Variable
Bit rate                                 : 14.2 Mbps
Maximum bit rate                         : 14.5 Mbps
Width                                    : 1 920 pixels
Height                                   : 1 080 pixels
Display aspect ratio                     : 16:9
Frame rate                               : 25.000 fps
Standard                                 : PAL
Color space                              : YUV
Chroma subsampling                       : 4:2:0
Bit depth                                : 8 bits
Scan type                                : Interlaced
Scan order                               : Top Field First
Bits/(Pixel*Frame)                       : 0.274
Stream size                              : 8.75 GiB (93%)
Color range                              : Limited
Color primaries                          : BT.709
Transfer characteristics                 : BT.709
Matrix coefficients                      : BT.709

Audio
ID                                       : 4112 (0x1010)
Menu ID                                  : 1 (0x1)
Format                                   : MPEG Audio
Format version                           : Version 1
Format profile                           : Layer 2
Mode                                     : Dual mono
Codec ID                                 : 4
Duration                                 : 1h 28mn
Bit rate mode                            : Constant
Bit rate                                 : 384 Kbps
Channel(s)                               : 2 channels
Sampling rate                            : 48.0 KHz
Compression mode                         : Lossy
Delay relative to video                  : 11ms
Stream size                              : 242 MiB (2%)
Language                                 : Italian
Language, more info                      : Clean effects

Download
***Hidden content cannot be quoted.***[/LEFT]