HDTV Metallica - Live Canal+,France 2016 (HDTV-1080i)-HDMania

NCURBAN

Well-Known Member
Administrative
May 25, 2016
3,360
4,162
113
Metallica - Live Canal+,France 2016 (HDTV-1080i)-HDMania



Gener: Rock
At: The House Of Vans, London
Date: 18/11/2016​

SetList:
  1. Breadfan (Budgie cover)
  2. The Four Horsemen
  3. Battery
  4. Sad But True
  5. Fade to Black
  6. Atlas, Rise!
  7. Harvester of Sorrow
  8. Moth Into Flame
  9. One
  10. Master of Puppets
  11. For Whom the Bell Tolls
  12. Enter Sandman
  13. Whiskey in the Jar
  14. Hardwired
  15. Seek & Destroy

Code:
Format                                   : MPEG-TS
File size                                : 2.28 GiB
Duration                                 : 42 min 42 s
Overall bit rate mode                    : Variable
Overall bit rate                         : 7 646 kb/s

Video
ID                                       : 110 (0x6E)
Menu ID                                  : 8801 (0x2261)
Format                                   : AVC
Format/Info                              : Advanced Video Codec
Format profile                           : High@L4
Format settings, CABAC                   : Yes
Format settings, ReFrames                : 4 frames
Codec ID                                 : 27
Duration                                 : 42 min 42 s
Bit rate                                 : 7 075 kb/s
Width                                    : 1 920 pixels
Height                                   : 1 080 pixels
Display aspect ratio                     : 16:9
Frame rate                               : 25.000 FPS
Standard                                 : Component
Color space                              : YUV
Chroma subsampling                       : 4:2:0
Bit depth                                : 8 bits
Scan type                                : MBAFF
Scan type, store method                  : Separated fields
Scan order                               : Top Field First
Bits/(Pixel*Frame)                       : 0.136
Stream size                              : 2.11 GiB (93%)
Color range                              : Limited
Color primaries                          : BT.709
Transfer characteristics                 : BT.709
Matrix coefficients                      : BT.709

Audio
ID                                       : 121 (0x79)
Menu ID                                  : 8801 (0x2261)
Format                                   : AC-3
Format/Info                              : Audio Coding 3
Mode extension                           : CM (complete main)
Format settings, Endianness              : Big
Codec ID                                 : 6
Duration                                 : 42 min 43 s
Bit rate mode                            : Constant
Bit rate                                 : 192 kb/s
Channel(s)                               : 2 channels
Channel positions                        : Front: L R
Sampling rate                            : 48.0 kHz
Frame rate                               : 31.250 FPS (1536 spf)
Bit depth                                : 16 bits
Compression mode                         : Lossy
Delay relative to video                  : 16 ms
Stream size                              : 58.7 MiB (3%)
Language                                 : French

Download
You must reply before you can see the hidden data contained here.
 

stm_93

New Member
Registered
Jul 21, 2019
2
0
1
27
d
Metallica - Live Canal+,France 2016 (HDTV-1080i)-HDMania



Gener: Rock
At: The House Of Vans, London
Date: 18/11/2016​

SetList:

  1. Breadfan (Budgie cover)
    The Four Horsemen
    Battery
    Sad But True
    Fade to Black
    Atlas, Rise!
    Harvester of Sorrow
    Moth Into Flame
    One
    Master of Puppets
    For Whom the Bell Tolls
    Enter Sandman
    Whiskey in the Jar
    Hardwired
    Seek & Destroy

Code:
Format                                   : MPEG-TS
File size                                : 2.28 GiB
Duration                                 : 42 min 42 s
Overall bit rate mode                    : Variable
Overall bit rate                         : 7 646 kb/s

Video
ID                                       : 110 (0x6E)
Menu ID                                  : 8801 (0x2261)
Format                                   : AVC
Format/Info                              : Advanced Video Codec
Format profile                           : High@L4
Format settings, CABAC                   : Yes
Format settings, ReFrames                : 4 frames
Codec ID                                 : 27
Duration                                 : 42 min 42 s
Bit rate                                 : 7 075 kb/s
Width                                    : 1 920 pixels
Height                                   : 1 080 pixels
Display aspect ratio                     : 16:9
Frame rate                               : 25.000 FPS
Standard                                 : Component
Color space                              : YUV
Chroma subsampling                       : 4:2:0
Bit depth                                : 8 bits
Scan type                                : MBAFF
Scan type, store method                  : Separated fields
Scan order                               : Top Field First
Bits/(Pixel*Frame)                       : 0.136
Stream size                              : 2.11 GiB (93%)
Color range                              : Limited
Color primaries                          : BT.709
Transfer characteristics                 : BT.709
Matrix coefficients                      : BT.709

Audio
ID                                       : 121 (0x79)
Menu ID                                  : 8801 (0x2261)
Format                                   : AC-3
Format/Info                              : Audio Coding 3
Mode extension                           : CM (complete main)
Format settings, Endianness              : Big
Codec ID                                 : 6
Duration                                 : 42 min 43 s
Bit rate mode                            : Constant
Bit rate                                 : 192 kb/s
Channel(s)                               : 2 channels
Channel positions                        : Front: L R
Sampling rate                            : 48.0 kHz
Frame rate                               : 31.250 FPS (1536 spf)
Bit depth                                : 16 bits
Compression mode                         : Lossy
Delay relative to video                  : 16 ms
Stream size                              : 58.7 MiB (3%)
Language                                 : French

Download
***Hidden content cannot be quoted.***