HDTV Miley Cyrus - Baby, I'm In The Mood For You (The Tonight Show Starring Jimmy Fallon 2016) [HDTV-720]

NCURBAN

Well-Known Member
Administrative
May 25, 2016
3,347
3,614
113
Miley Cyrus - Baby, I'm In The Mood For You (The Tonight Show Starring Jimmy Fallon 2016) [HDTV-720]



Code:
[LEFT]Format                                   : MPEG-TS
File size                                : 232 MiB
Duration                                 : 4mn 0s
Overall bit rate mode                    : Variable
Overall bit rate                         : 8 106 Kbps

Video
ID                                       : 5411 (0x1523)
Menu ID                                  : 10376 (0x2888)
Format                                   : AVC
Format/Info                              : Advanced Video Codec
Format profile                           : High@L4
Format settings, CABAC                   : Yes
Format settings, ReFrames                : 4 frames
Format settings, GOP                     : M=8, N=32
Codec ID                                 : 27
Duration                                 : 3mn 59s
Bit rate                                 : 6 865 Kbps
Width                                    : 1 280 pixels
Height                                   : 720 pixels
Display aspect ratio                     : 16:9
Frame rate                               : 50.000 fps
Color space                              : YUV
Chroma subsampling                       : 4:2:0
Bit depth                                : 8 bits
Scan type                                : Progressive
Bits/(Pixel*Frame)                       : 0.149
Stream size                              : 196 MiB (85%)

Audio #1
ID                                       : 5412 (0x1524)
Menu ID                                  : 10376 (0x2888)
Format                                   : AC-3
Format/Info                              : Audio Coding 3
Mode extension                           : CM (complete main)
Format settings, Endianness              : Big
Codec ID                                 : 6
Duration                                 : 4mn 0s
Bit rate mode                            : Constant
Bit rate                                 : 448 Kbps
Channel(s)                               : 2 channels
Channel positions                        : Front: L R
Sampling rate                            : 48.0 KHz
Compression mode                         : Lossy
Delay relative to video                  : -140ms
Stream size                              : 12.8 MiB (6%)
Language                                 : German

Audio #2
ID                                       : 5413 (0x1525)
Menu ID                                  : 10376 (0x2888)
Format                                   : MPEG Audio
Format version                           : Version 1
Format profile                           : Layer 2
Codec ID                                 : 3
Duration                                 : 4mn 0s
Bit rate mode                            : Constant
Bit rate                                 : 192 Kbps
Channel(s)                               : 2 channels
Sampling rate                            : 48.0 KHz
Compression mode                         : Lossy
Delay relative to video                  : -140ms
Stream size                              : 5.49 MiB (2%)
Language                                 : German

Audio #3
ID                                       : 5414 (0x1526)
Menu ID                                  : 10376 (0x2888)
Format                                   : MPEG Audio
Format version                           : Version 1
Format profile                           : Layer 2
Codec ID                                 : 3
Duration                                 : 4mn 0s
Bit rate mode                            : Constant
Bit rate                                 : 192 Kbps
Channel(s)                               : 2 channels
Sampling rate                            : 48.0 KHz
Compression mode                         : Lossy
Delay relative to video                  : -140ms
Stream size                              : 5.49 MiB (2%)[/LEFT]

Download
[HIDE-REPLY]MEGA
[/HIDE-REPLY]