Master Miley Cyrus & Borgore - Decisions (MasterRip-1080p)-HDMania

NCURBAN

Well-Known Member
Administrative
May 25, 2016
3,358
4,084
113
Miley Cyrus & Borgore - Decisions (MasterRip-1080p)-HDMania



Geners: Dance
Relesead: Nov 01, 2012​

Code:
Format                                   : MPEG-4
Format profile                           : QuickTime
Codec ID                                 : qt
File size                                : 263 MiB
Duration                                 : 4mn 25s
Overall bit rate                         : 8 312 Kbps
Encoded date                             : UTC 2012-10-15 21:02:55
Tagged date                              : UTC 2012-10-15 21:15:30
Writing library                          : Apple QuickTime
Media/UUID                               : 77EE3204-AFE8-4E65-A613-83CCB9D945CA
Media/History/UUID                       : 00A9D5C1-E42A-41F2-AFB6-51C0ECBC7101

Video
ID                                       : 1
Format                                   : AVC
Format/Info                              : Advanced Video Codec
Format profile                           : Main@L4
Format settings, CABAC                   : No
Format settings, ReFrames                : 2 frames
Format settings, GOP                     : M=2, N=60
Codec ID                                 : avc1
Codec ID/Info                            : Advanced Video Coding
Duration                                 : 4mn 25s
Bit rate                                 : 8 006 Kbps
Width                                    : 1 920 pixels
Clean aperture width                     : 1 888 pixels
Height                                   : 1 080 pixels
Clean aperture height                    : 1 062 pixels
Display aspect ratio                     : 16:9
Frame rate mode                          : Constant
Frame rate                               : 23.976 fps
Color space                              : YUV
Chroma subsampling                       : 4:2:0
Bit depth                                : 8 bits
Scan type                                : Progressive
Bits/(Pixel*Frame)                       : 0.161
Stream size                              : 254 MiB (96%)
Language                                 : English
Encoded date                             : UTC 2012-10-15 21:15:20
Tagged date                              : UTC 2012-10-15 21:15:30
Color range                              : Limited
Color primaries                          : BT.709
Transfer characteristics                 : BT.709
Matrix coefficients                      : BT.709

Audio
ID                                       : 2
Format                                   : AAC
Format/Info                              : Advanced Audio Codec
Format profile                           : LC
Codec ID                                 : 40
Duration                                 : 4mn 25s
Source duration                          : 4mn 25s
Bit rate mode                            : Constant
Bit rate                                 : 301 Kbps
Nominal bit rate                         : 320 Kbps
Channel(s)                               : 2 channels
Channel positions                        : Front: L R
Sampling rate                            : 48.0 KHz
Compression mode                         : Lossy
Stream size                              : 9.54 MiB (4%)
Source stream size                       : 9.54 MiB (4%)
Language                                 : English
Encoded date                             : UTC 2012-10-15 21:15:21
Tagged date                              : UTC 2012-10-15 21:15:30

Other
ID                                       : 3
Type                                     : Time code
Format                                   : QuickTime TC
Duration                                 : 4mn 25s
Time code of first frame                 : 00:59:30:00
Time code, striped                       : Yes
Language                                 : English
Encoded date                             : UTC 2012-10-15 21:15:30
Tagged date                              : UTC 2012-10-15 21:15:30

Download
You must reply before you can see the hidden data contained here.
 

vhugodd

New Member
Registered
Sep 11, 2019
11
0
1
21
t
Miley Cyrus & Borgore - Decisions (MasterRip-1080p)-HDMania



Geners: Dance
Relesead: Nov 01, 2012​

Code:
Format                                   : MPEG-4
Format profile                           : QuickTime
Codec ID                                 : qt
File size                                : 263 MiB
Duration                                 : 4mn 25s
Overall bit rate                         : 8 312 Kbps
Encoded date                             : UTC 2012-10-15 21:02:55
Tagged date                              : UTC 2012-10-15 21:15:30
Writing library                          : Apple QuickTime
Media/UUID                               : 77EE3204-AFE8-4E65-A613-83CCB9D945CA
Media/History/UUID                       : 00A9D5C1-E42A-41F2-AFB6-51C0ECBC7101

Video
ID                                       : 1
Format                                   : AVC
Format/Info                              : Advanced Video Codec
Format profile                           : Main@L4
Format settings, CABAC                   : No
Format settings, ReFrames                : 2 frames
Format settings, GOP                     : M=2, N=60
Codec ID                                 : avc1
Codec ID/Info                            : Advanced Video Coding
Duration                                 : 4mn 25s
Bit rate                                 : 8 006 Kbps
Width                                    : 1 920 pixels
Clean aperture width                     : 1 888 pixels
Height                                   : 1 080 pixels
Clean aperture height                    : 1 062 pixels
Display aspect ratio                     : 16:9
Frame rate mode                          : Constant
Frame rate                               : 23.976 fps
Color space                              : YUV
Chroma subsampling                       : 4:2:0
Bit depth                                : 8 bits
Scan type                                : Progressive
Bits/(Pixel*Frame)                       : 0.161
Stream size                              : 254 MiB (96%)
Language                                 : English
Encoded date                             : UTC 2012-10-15 21:15:20
Tagged date                              : UTC 2012-10-15 21:15:30
Color range                              : Limited
Color primaries                          : BT.709
Transfer characteristics                 : BT.709
Matrix coefficients                      : BT.709

Audio
ID                                       : 2
Format                                   : AAC
Format/Info                              : Advanced Audio Codec
Format profile                           : LC
Codec ID                                 : 40
Duration                                 : 4mn 25s
Source duration                          : 4mn 25s
Bit rate mode                            : Constant
Bit rate                                 : 301 Kbps
Nominal bit rate                         : 320 Kbps
Channel(s)                               : 2 channels
Channel positions                        : Front: L R
Sampling rate                            : 48.0 KHz
Compression mode                         : Lossy
Stream size                              : 9.54 MiB (4%)
Source stream size                       : 9.54 MiB (4%)
Language                                 : English
Encoded date                             : UTC 2012-10-15 21:15:21
Tagged date                              : UTC 2012-10-15 21:15:30

Other
ID                                       : 3
Type                                     : Time code
Format                                   : QuickTime TC
Duration                                 : 4mn 25s
Time code of first frame                 : 00:59:30:00
Time code, striped                       : Yes
Language                                 : English
Encoded date                             : UTC 2012-10-15 21:15:30
Tagged date                              : UTC 2012-10-15 21:15:30

Download
***Hidden content cannot be quoted.***
thank you
 

alpainsponge

New Member
Registered
Feb 3, 2020
18
2
1
58
Miley Cyrus & Borgore - Decisions (MasterRip-1080p)-HDMania



Geners: Dance
Relesead: Nov 01, 2012​

Code:
Format                                   : MPEG-4
Format profile                           : QuickTime
Codec ID                                 : qt
File size                                : 263 MiB
Duration                                 : 4mn 25s
Overall bit rate                         : 8 312 Kbps
Encoded date                             : UTC 2012-10-15 21:02:55
Tagged date                              : UTC 2012-10-15 21:15:30
Writing library                          : Apple QuickTime
Media/UUID                               : 77EE3204-AFE8-4E65-A613-83CCB9D945CA
Media/History/UUID                       : 00A9D5C1-E42A-41F2-AFB6-51C0ECBC7101

Video
ID                                       : 1
Format                                   : AVC
Format/Info                              : Advanced Video Codec
Format profile                           : Main@L4
Format settings, CABAC                   : No
Format settings, ReFrames                : 2 frames
Format settings, GOP                     : M=2, N=60
Codec ID                                 : avc1
Codec ID/Info                            : Advanced Video Coding
Duration                                 : 4mn 25s
Bit rate                                 : 8 006 Kbps
Width                                    : 1 920 pixels
Clean aperture width                     : 1 888 pixels
Height                                   : 1 080 pixels
Clean aperture height                    : 1 062 pixels
Display aspect ratio                     : 16:9
Frame rate mode                          : Constant
Frame rate                               : 23.976 fps
Color space                              : YUV
Chroma subsampling                       : 4:2:0
Bit depth                                : 8 bits
Scan type                                : Progressive
Bits/(Pixel*Frame)                       : 0.161
Stream size                              : 254 MiB (96%)
Language                                 : English
Encoded date                             : UTC 2012-10-15 21:15:20
Tagged date                              : UTC 2012-10-15 21:15:30
Color range                              : Limited
Color primaries                          : BT.709
Transfer characteristics                 : BT.709
Matrix coefficients                      : BT.709

Audio
ID                                       : 2
Format                                   : AAC
Format/Info                              : Advanced Audio Codec
Format profile                           : LC
Codec ID                                 : 40
Duration                                 : 4mn 25s
Source duration                          : 4mn 25s
Bit rate mode                            : Constant
Bit rate                                 : 301 Kbps
Nominal bit rate                         : 320 Kbps
Channel(s)                               : 2 channels
Channel positions                        : Front: L R
Sampling rate                            : 48.0 KHz
Compression mode                         : Lossy
Stream size                              : 9.54 MiB (4%)
Source stream size                       : 9.54 MiB (4%)
Language                                 : English
Encoded date                             : UTC 2012-10-15 21:15:21
Tagged date                              : UTC 2012-10-15 21:15:30

Other
ID                                       : 3
Type                                     : Time code
Format                                   : QuickTime TC
Duration                                 : 4mn 25s
Time code of first frame                 : 00:59:30:00
Time code, striped                       : Yes
Language                                 : English
Encoded date                             : UTC 2012-10-15 21:15:30
Tagged date                              : UTC 2012-10-15 21:15:30

Download
***Hidden content cannot be quoted.***
thanks