1. If this is your first visit, be sure to check out the FAQ by clicking the link above. You may have to register before you can access the full forum. Follow the link above to Register. To start viewing messages, select the forum that you want to visit from the selection below.
    Dismiss Notice

FEED Miley Cyrus - Capital FM Summertime Ball 2014 (FEED-1080i-HDTV)

Discussion in 'Live Performances & Concerts' started by NCURBAN, Jun 14, 2016.

  1. NCURBAN

    NCURBAN Well-Known Member Administrative

    Joined:
    May 25, 2016
    Messages:
    2,857
    Likes Received:
    1,249
    Trophy Points:
    113
    Miley Cyrus - Capital FM Summertime Ball 2014 (FEED-1080i-HDTV)

    [​IMG]

    Setlist:
    1. Wrecking Ball
    2. We Can't Stop
    3. Party in the U.S.A.

    Code:
    Format                         : MPEG-TS
    File size                      : 2.98 GiB
    Duration                       : 13mn 51s
    Overall bit rate mode          : Variable
    Overall bit rate               : 30.8 Mbps
    
    Video
    ID                             : 308 (0x134)
    Menu ID                        : 1 (0x1)
    Format                         : AVC
    Format/Info                    : Advanced Video Codec
    Format profile                 : High@L4.1
    Format settings, CABAC         : Yes
    Format settings, ReFrames      : 4 frames
    Codec ID                       : 27
    Duration                       : 13mn 51s
    Bit rate                       : 28.9 Mbps
    Width                          : 1 920 pixels
    Height                         : 1 080 pixels
    Display aspect ratio           : 16:9
    Frame rate                     : 25.000 fps
    Color space                    : YUV
    Chroma subsampling             : 4:2:0
    Bit depth                      : 8 bits
    Scan type                      : Interlaced
    Bits/(Pixel*Frame)             : 0.557
    Stream size                    : 2.80 GiB (94%)
    Color primaries                : BT.709
    Transfer characteristics       : BT.709
    Matrix coefficients            : BT.709
    
    Audio #1
    ID                             : 256 (0x100)
    Menu ID                        : 1 (0x1)
    Format                         : MPEG Audio
    Format version                 : Version 1
    Format profile                 : Layer 2
    Codec ID                       : 3
    Duration                       : 13mn 51s
    Bit rate mode                  : Constant
    Bit rate                       : 192 Kbps
    Channel(s)                     : 2 channels
    Sampling rate                  : 48.0 KHz
    Compression mode               : Lossy
    Stream size                    : 19.0 MiB (1%)
    Language                       : English
    
    Audio #2
    ID                             : 257 (0x101)
    Menu ID                        : 1 (0x1)
    Format                         : MPEG Audio
    Format version                 : Version 1
    Format profile                 : Layer 2
    Codec ID                       : 3
    Duration                       : 13mn 51s
    Bit rate mode                  : Constant
    Bit rate                       : 192 Kbps
    Channel(s)                     : 2 channels
    Sampling rate                  : 48.0 KHz
    Compression mode               : Lossy
    Stream size                    : 19.0 MiB (1%)
    Language                       : English

    Download
    Hidden Content:
    You must reply before you can see the hidden data contained here.
     
  2. Loading...