BLU-RAY Miley Cyrus - When I Look At You (BluRay-1080p)

NCURBAN

Well-Known Member
Administrative
May 25, 2016
3,347
3,885
113
Miley Cyrus - When I Look At You (BluRay-1080p)


Genre: Pop
Released: Feb 24, 2010
Copyright: ℗ (P) 2010 Hollywood Records, Inc. & Touchstone Pictures
Code:
Format                                   : BDAV
Format/Info                              : Blu-ray Video
File size                                : 518 MiB
Duration                                 : 4 min 16 s
Overall bit rate mode                    : Variable
Overall bit rate                         : 16.9 Mb/s
Maximum Overall bit rate                 : 48.0 Mb/s

Video
ID                                       : 4113 (0x1011)
Menu ID                                  : 1 (0x1)
Format                                   : AVC
Format/Info                              : Advanced Video Codec
Format profile                           : High@L4.1
Format settings, CABAC                   : Yes
Format settings, ReFrames                : 4 frames
Codec ID                                 : 27
Duration                                 : 4 min 16 s
Bit rate mode                            : Variable
Bit rate                                 : 15.8 Mb/s
Maximum bit rate                         : 20.0 Mb/s
Width                                    : 1 920 pixels
Height                                   : 1 080 pixels
Display aspect ratio                     : 16:9
Frame rate                               : 23.976 (24000/1001) FPS
Standard                                 : NTSC
Color space                              : YUV
Chroma subsampling                       : 4:2:0
Bit depth                                : 8 bits
Scan type                                : Progressive
Bits/(Pixel*Frame)                       : 0.318
Stream size                              : 483 MiB (93%)
Color range                              : Limited
Color primaries                          : BT.709
Transfer characteristics                 : BT.709
Matrix coefficients                      : BT.709

Audio
ID                                       : 4352 (0x1100)
Menu ID                                  : 1 (0x1)
Format                                   : AC-3
Format/Info                              : Audio Coding 3
Mode extension                           : CM (complete main)
Format settings, Endianness              : Big
Codec ID                                 : 129
Duration                                 : 4 min 16 s
Bit rate mode                            : Constant
Bit rate                                 : 448 kb/s
Channel(s)                               : 6 channels
Channel positions                        : Front: L C R, Side: L R, LFE
Sampling rate                            : 48.0 kHz
Frame rate                               : 31.250 FPS (1536 spf)
Bit depth                                : 16 bits
Compression mode                         : Lossy
Stream size                              : 13.7 MiB (3%)
Download
[HIDE-REPLY]MEGA[/HIDE-REPLY]
 
  • Like
Reactions: Dresa

nickiminajthebest

New Member
Registered
Nov 24, 2017
4
0
1
23
Miley Cyrus - When I Look At You (BluRay-1080p)



Code:
Format                                   : BDAV
Format/Info                              : Blu-ray Video
File size                                : 518 MiB
Duration                                 : 4 min 16 s
Overall bit rate mode                    : Variable
Overall bit rate                         : 16.9 Mb/s
Maximum Overall bit rate                 : 48.0 Mb/s

Video
ID                                       : 4113 (0x1011)
Menu ID                                  : 1 (0x1)
Format                                   : AVC
Format/Info                              : Advanced Video Codec
Format profile                           : High@L4.1
Format settings, CABAC                   : Yes
Format settings, ReFrames                : 4 frames
Codec ID                                 : 27
Duration                                 : 4 min 16 s
Bit rate mode                            : Variable
Bit rate                                 : 15.8 Mb/s
Maximum bit rate                         : 20.0 Mb/s
Width                                    : 1 920 pixels
Height                                   : 1 080 pixels
Display aspect ratio                     : 16:9
Frame rate                               : 23.976 (24000/1001) FPS
Standard                                 : NTSC
Color space                              : YUV
Chroma subsampling                       : 4:2:0
Bit depth                                : 8 bits
Scan type                                : Progressive
Bits/(Pixel*Frame)                       : 0.318
Stream size                              : 483 MiB (93%)
Color range                              : Limited
Color primaries                          : BT.709
Transfer characteristics                 : BT.709
Matrix coefficients                      : BT.709

Audio
ID                                       : 4352 (0x1100)
Menu ID                                  : 1 (0x1)
Format                                   : AC-3
Format/Info                              : Audio Coding 3
Mode extension                           : CM (complete main)
Format settings, Endianness              : Big
Codec ID                                 : 129
Duration                                 : 4 min 16 s
Bit rate mode                            : Constant
Bit rate                                 : 448 kb/s
Channel(s)                               : 6 channels
Channel positions                        : Front: L C R, Side: L R, LFE
Sampling rate                            : 48.0 kHz
Frame rate                               : 31.250 FPS (1536 spf)
Bit depth                                : 16 bits
Compression mode                         : Lossy
Stream size                              : 13.7 MiB (3%)
Download
***Hidden content cannot be quoted.***
thanks
 

tilon94

New Member
Registered
Dec 19, 2017
2
0
1
26
Miley Cyrus - When I Look At You (BluRay-1080p)



Code:
Format                                   : BDAV
Format/Info                              : Blu-ray Video
File size                                : 518 MiB
Duration                                 : 4 min 16 s
Overall bit rate mode                    : Variable
Overall bit rate                         : 16.9 Mb/s
Maximum Overall bit rate                 : 48.0 Mb/s

Video
ID                                       : 4113 (0x1011)
Menu ID                                  : 1 (0x1)
Format                                   : AVC
Format/Info                              : Advanced Video Codec
Format profile                           : High@L4.1
Format settings, CABAC                   : Yes
Format settings, ReFrames                : 4 frames
Codec ID                                 : 27
Duration                                 : 4 min 16 s
Bit rate mode                            : Variable
Bit rate                                 : 15.8 Mb/s
Maximum bit rate                         : 20.0 Mb/s
Width                                    : 1 920 pixels
Height                                   : 1 080 pixels
Display aspect ratio                     : 16:9
Frame rate                               : 23.976 (24000/1001) FPS
Standard                                 : NTSC
Color space                              : YUV
Chroma subsampling                       : 4:2:0
Bit depth                                : 8 bits
Scan type                                : Progressive
Bits/(Pixel*Frame)                       : 0.318
Stream size                              : 483 MiB (93%)
Color range                              : Limited
Color primaries                          : BT.709
Transfer characteristics                 : BT.709
Matrix coefficients                      : BT.709

Audio
ID                                       : 4352 (0x1100)
Menu ID                                  : 1 (0x1)
Format                                   : AC-3
Format/Info                              : Audio Coding 3
Mode extension                           : CM (complete main)
Format settings, Endianness              : Big
Codec ID                                 : 129
Duration                                 : 4 min 16 s
Bit rate mode                            : Constant
Bit rate                                 : 448 kb/s
Channel(s)                               : 6 channels
Channel positions                        : Front: L C R, Side: L R, LFE
Sampling rate                            : 48.0 kHz
Frame rate                               : 31.250 FPS (1536 spf)
Bit depth                                : 16 bits
Compression mode                         : Lossy
Stream size                              : 13.7 MiB (3%)
Download
***Hidden content cannot be quoted.***
thankss
 

MartinL

New Member
Registered
Jul 27, 2018
5
0
1
21
Miley Cyrus - When I Look At You (BluRay-1080p)



Code:
Format                                   : BDAV
Format/Info                              : Blu-ray Video
File size                                : 518 MiB
Duration                                 : 4 min 16 s
Overall bit rate mode                    : Variable
Overall bit rate                         : 16.9 Mb/s
Maximum Overall bit rate                 : 48.0 Mb/s

Video
ID                                       : 4113 (0x1011)
Menu ID                                  : 1 (0x1)
Format                                   : AVC
Format/Info                              : Advanced Video Codec
Format profile                           : High@L4.1
Format settings, CABAC                   : Yes
Format settings, ReFrames                : 4 frames
Codec ID                                 : 27
Duration                                 : 4 min 16 s
Bit rate mode                            : Variable
Bit rate                                 : 15.8 Mb/s
Maximum bit rate                         : 20.0 Mb/s
Width                                    : 1 920 pixels
Height                                   : 1 080 pixels
Display aspect ratio                     : 16:9
Frame rate                               : 23.976 (24000/1001) FPS
Standard                                 : NTSC
Color space                              : YUV
Chroma subsampling                       : 4:2:0
Bit depth                                : 8 bits
Scan type                                : Progressive
Bits/(Pixel*Frame)                       : 0.318
Stream size                              : 483 MiB (93%)
Color range                              : Limited
Color primaries                          : BT.709
Transfer characteristics                 : BT.709
Matrix coefficients                      : BT.709

Audio
ID                                       : 4352 (0x1100)
Menu ID                                  : 1 (0x1)
Format                                   : AC-3
Format/Info                              : Audio Coding 3
Mode extension                           : CM (complete main)
Format settings, Endianness              : Big
Codec ID                                 : 129
Duration                                 : 4 min 16 s
Bit rate mode                            : Constant
Bit rate                                 : 448 kb/s
Channel(s)                               : 6 channels
Channel positions                        : Front: L C R, Side: L R, LFE
Sampling rate                            : 48.0 kHz
Frame rate                               : 31.250 FPS (1536 spf)
Bit depth                                : 16 bits
Compression mode                         : Lossy
Stream size                              : 13.7 MiB (3%)
Download
***Hidden content cannot be quoted.***
mc
 

bruno4431

New Member
Registered
Apr 14, 2019
2
0
1
21
Miley Cyrus - When I Look At You (BluRay-1080p)



Code:
Format                                   : BDAV
Format/Info                              : Blu-ray Video
File size                                : 518 MiB
Duration                                 : 4 min 16 s
Overall bit rate mode                    : Variable
Overall bit rate                         : 16.9 Mb/s
Maximum Overall bit rate                 : 48.0 Mb/s

Video
ID                                       : 4113 (0x1011)
Menu ID                                  : 1 (0x1)
Format                                   : AVC
Format/Info                              : Advanced Video Codec
Format profile                           : High@L4.1
Format settings, CABAC                   : Yes
Format settings, ReFrames                : 4 frames
Codec ID                                 : 27
Duration                                 : 4 min 16 s
Bit rate mode                            : Variable
Bit rate                                 : 15.8 Mb/s
Maximum bit rate                         : 20.0 Mb/s
Width                                    : 1 920 pixels
Height                                   : 1 080 pixels
Display aspect ratio                     : 16:9
Frame rate                               : 23.976 (24000/1001) FPS
Standard                                 : NTSC
Color space                              : YUV
Chroma subsampling                       : 4:2:0
Bit depth                                : 8 bits
Scan type                                : Progressive
Bits/(Pixel*Frame)                       : 0.318
Stream size                              : 483 MiB (93%)
Color range                              : Limited
Color primaries                          : BT.709
Transfer characteristics                 : BT.709
Matrix coefficients                      : BT.709

Audio
ID                                       : 4352 (0x1100)
Menu ID                                  : 1 (0x1)
Format                                   : AC-3
Format/Info                              : Audio Coding 3
Mode extension                           : CM (complete main)
Format settings, Endianness              : Big
Codec ID                                 : 129
Duration                                 : 4 min 16 s
Bit rate mode                            : Constant
Bit rate                                 : 448 kb/s
Channel(s)                               : 6 channels
Channel positions                        : Front: L C R, Side: L R, LFE
Sampling rate                            : 48.0 kHz
Frame rate                               : 31.250 FPS (1536 spf)
Bit depth                                : 16 bits
Compression mode                         : Lossy
Stream size                              : 13.7 MiB (3%)
Download
***Hidden content cannot be quoted.***
thank you
 

vhugodd

New Member
Registered
Sep 11, 2019
11
0
1
21
Miley Cyrus - When I Look At You (BluRay-1080p)



Code:
Format                                   : BDAV
Format/Info                              : Blu-ray Video
File size                                : 518 MiB
Duration                                 : 4 min 16 s
Overall bit rate mode                    : Variable
Overall bit rate                         : 16.9 Mb/s
Maximum Overall bit rate                 : 48.0 Mb/s

Video
ID                                       : 4113 (0x1011)
Menu ID                                  : 1 (0x1)
Format                                   : AVC
Format/Info                              : Advanced Video Codec
Format profile                           : High@L4.1
Format settings, CABAC                   : Yes
Format settings, ReFrames                : 4 frames
Codec ID                                 : 27
Duration                                 : 4 min 16 s
Bit rate mode                            : Variable
Bit rate                                 : 15.8 Mb/s
Maximum bit rate                         : 20.0 Mb/s
Width                                    : 1 920 pixels
Height                                   : 1 080 pixels
Display aspect ratio                     : 16:9
Frame rate                               : 23.976 (24000/1001) FPS
Standard                                 : NTSC
Color space                              : YUV
Chroma subsampling                       : 4:2:0
Bit depth                                : 8 bits
Scan type                                : Progressive
Bits/(Pixel*Frame)                       : 0.318
Stream size                              : 483 MiB (93%)
Color range                              : Limited
Color primaries                          : BT.709
Transfer characteristics                 : BT.709
Matrix coefficients                      : BT.709

Audio
ID                                       : 4352 (0x1100)
Menu ID                                  : 1 (0x1)
Format                                   : AC-3
Format/Info                              : Audio Coding 3
Mode extension                           : CM (complete main)
Format settings, Endianness              : Big
Codec ID                                 : 129
Duration                                 : 4 min 16 s
Bit rate mode                            : Constant
Bit rate                                 : 448 kb/s
Channel(s)                               : 6 channels
Channel positions                        : Front: L C R, Side: L R, LFE
Sampling rate                            : 48.0 kHz
Frame rate                               : 31.250 FPS (1536 spf)
Bit depth                                : 16 bits
Compression mode                         : Lossy
Stream size                              : 13.7 MiB (3%)
Download
***Hidden content cannot be quoted.***
omg thank yoooou
 

eliel

New Member
Registered
Jan 21, 2020
4
0
1
30
[QUOTE = "NCURBAN, post: 599, membro: 1"]
Miley Cyrus - Quando eu olho para você (BluRay-1080p)



[SPOILER = "MediaInfo"]​
Code:
 Formato: BDAV
Formato / Informações: Blu-ray Video
Tamanho do arquivo: 518 MiB
Duração: 4 min 16 s
Modo geral de taxa de bits: Variável
Taxa de bits geral: 16,9 Mb / s
Taxa de bits geral máxima: 48,0 Mb / s

Vídeo
ID: 4113 (0x1011)
ID do menu: 1 (0x1)
Formato: AVC
Formato / Informações: Advanced Video Codec
Perfil do formato: High@L4.1
Configurações de formato, CABAC: Sim
Configurações de formato, ReFrames: 4 quadros
ID do codec: 27
Duração: 4 min 16 s
Modo de taxa de bits: Variável
Taxa de bits: 15,8 Mb / s
Taxa de bits máxima: 20,0 Mb / s
Largura: 1 920 pixels
Altura: 1.080 pixels
Proporção da tela: 16: 9
Taxa de quadros: 23.976 (24000/1001) FPS
Padrão: NTSC
Espaço de cor: YUV
Subamostragem de croma: 4: 2: 0
Profundidade de bits: 8 bits
Tipo de digitalização: Progressivo
Bits / (Pixel * Quadro): 0,318
Tamanho do fluxo: 483 MiB (93%)
Gama de cores: Limitado
Cores primárias: BT.709
Características de transferência: BT.709
Coeficientes da matriz: BT.709

Áudio
ID: 4352 (0x1100)
ID do menu: 1 (0x1)
Formato: AC-3
Formato / Informações: Codificação de Áudio 3
Extensão de modo: CM (completo principal)
Configurações de formato, Endianness: Big
ID do codec: 129
Duração: 4 min 16 s
Modo de taxa de bits: constante
Taxa de bits: 448 kb / s
Canal (es): 6 canais
Posições do canal: Frente: LCR, Lado: LR, LFE
Taxa de amostragem: 48,0 kHz
Taxa de quadros: 31.250 FPS (1536 spf)
Profundidade de bits: 16 bits
Modo de compressão: Perda
Tamanho do fluxo: 13,7 MiB (3%) [/ CODE][/LEFT]
[CENTER][/SPOILER][/CENTER]
Baixar
[B]*** O conteúdo oculto não pode ser citado. ***[/B] [/ QUOTE]
 

Dresa

New Member
Registered
Mar 17, 2020
1
0
1
29
[QUOTE = "NCURBAN, post: 599, membro: 1"]
Miley Cyrus - Quando eu olho para você (BluRay-1080p)



[SPOILER = "MediaInfo"]​
Code:
 Formato: BDAV

Formato / Informações: Blu-ray Video
Tamanho do arquivo: 518 MiB
Duração: 4 min 16 s
Modo geral de taxa de bits: Variável
Taxa de bits geral: 16,9 Mb / s
Taxa de bits geral máxima: 48,0 Mb / s

Vídeo
ID: 4113 (0x1011)
ID do menu: 1 (0x1)
Formato: AVC
Formato / Informações: Advanced Video Codec
Perfil do formato: High@L4.1
Configurações de formato, CABAC: Sim
Configurações de formato, ReFrames: 4 quadros
ID do codec: 27
Duração: 4 min 16 s
Modo de taxa de bits: Variável
Taxa de bits: 15,8 Mb / s
Taxa de bits máxima: 20,0 Mb / s
Largura: 1 920 pixels
Altura: 1.080 pixels
Proporção da tela: 16: 9
Taxa de quadros: 23.976 (24000/1001) FPS
Padrão: NTSC
Espaço de cor: YUV
Subamostragem de croma: 4: 2: 0
Profundidade de bits: 8 bits
Tipo de digitalização: Progressivo
Bits / (Pixel * Quadro): 0,318
Tamanho do fluxo: 483 MiB (93%)
Gama de cores: Limitado
Cores primárias: BT.709
Características de transferência: BT.709
Coeficientes da matriz: BT.709

Áudio
ID: 4352 (0x1100)
ID do menu: 1 (0x1)
Formato: AC-3
Formato / Informações: Codificação de Áudio 3
Extensão de modo: CM (completo principal)
Configurações de formato, Endianness: Big
ID do codec: 129
Duração: 4 min 16 s
Modo de taxa de bits: constante
Taxa de bits: 448 kb / s
Canal (es): 6 canais
Posições do canal: Frente: LCR, Lado: LR, LFE
Sampling rate                            : 48.0 kHz
Frame rate                               : 31.250 FPS (1536 spf)
Bit depth                                : 16 bits
Compression mode                         : Lossy
Stream size                              : 13.7 MiB (3%)
[/SPOILER]​
Download
***Hidden content cannot be quoted.***[/QUOTE]
Miley Cyrus - When I Look At You (BluRay-1080p)



Code:
Format                                   : BDAV
Format/Info                              : Blu-ray Video
File size                                : 518 MiB
Duration                                 : 4 min 16 s
Overall bit rate mode                    : Variable
Overall bit rate                         : 16.9 Mb/s
Maximum Overall bit rate                 : 48.0 Mb/s

Video
ID                                       : 4113 (0x1011)
Menu ID                                  : 1 (0x1)
Format                                   : AVC
Format/Info                              : Advanced Video Codec
Format profile                           : High@L4.1
Format settings, CABAC                   : Yes
Format settings, ReFrames                : 4 frames
Codec ID                                 : 27
Duration                                 : 4 min 16 s
Bit rate mode                            : Variable
Bit rate                                 : 15.8 Mb/s
Maximum bit rate                         : 20.0 Mb/s
Width                                    : 1 920 pixels
Height                                   : 1 080 pixels
Display aspect ratio                     : 16:9
Frame rate                               : 23.976 (24000/1001) FPS
Standard                                 : NTSC
Color space                              : YUV
Chroma subsampling                       : 4:2:0
Bit depth                                : 8 bits
Scan type                                : Progressive
Bits/(Pixel*Frame)                       : 0.318
Stream size                              : 483 MiB (93%)
Color range                              : Limited
Color primaries                          : BT.709
Transfer characteristics                 : BT.709
Matrix coefficients                      : BT.709

Audio
ID                                       : 4352 (0x1100)
Menu ID                                  : 1 (0x1)
Format                                   : AC-3
Format/Info                              : Audio Coding 3
Mode extension                           : CM (complete main)
Format settings, Endianness              : Big
Codec ID                                 : 129
Duration                                 : 4 min 16 s
Bit rate mode                            : Constant
Bit rate                                 : 448 kb/s
Channel(s)                               : 6 channels
Channel positions                        : Front: L C R, Side: L R, LFE
Sampling rate                            : 48.0 kHz
Frame rate                               : 31.250 FPS (1536 spf)
Bit depth                                : 16 bits
Compression mode                         : Lossy
Stream size                              : 13.7 MiB (3%)
Download
***Hidden content cannot be quoted.***
 

DCOM

New Member
Registered
Mar 10, 2020
2
0
1
18
Miley Cyrus - When I Look At You (BluRay-1080p)



Code:
Format                                   : BDAV
Format/Info                              : Blu-ray Video
File size                                : 518 MiB
Duration                                 : 4 min 16 s
Overall bit rate mode                    : Variable
Overall bit rate                         : 16.9 Mb/s
Maximum Overall bit rate                 : 48.0 Mb/s

Video
ID                                       : 4113 (0x1011)
Menu ID                                  : 1 (0x1)
Format                                   : AVC
Format/Info                              : Advanced Video Codec
Format profile                           : High@L4.1
Format settings, CABAC                   : Yes
Format settings, ReFrames                : 4 frames
Codec ID                                 : 27
Duration                                 : 4 min 16 s
Bit rate mode                            : Variable
Bit rate                                 : 15.8 Mb/s
Maximum bit rate                         : 20.0 Mb/s
Width                                    : 1 920 pixels
Height                                   : 1 080 pixels
Display aspect ratio                     : 16:9
Frame rate                               : 23.976 (24000/1001) FPS
Standard                                 : NTSC
Color space                              : YUV
Chroma subsampling                       : 4:2:0
Bit depth                                : 8 bits
Scan type                                : Progressive
Bits/(Pixel*Frame)                       : 0.318
Stream size                              : 483 MiB (93%)
Color range                              : Limited
Color primaries                          : BT.709
Transfer characteristics                 : BT.709
Matrix coefficients                      : BT.709

Audio
ID                                       : 4352 (0x1100)
Menu ID                                  : 1 (0x1)
Format                                   : AC-3
Format/Info                              : Audio Coding 3
Mode extension                           : CM (complete main)
Format settings, Endianness              : Big
Codec ID                                 : 129
Duration                                 : 4 min 16 s
Bit rate mode                            : Constant
Bit rate                                 : 448 kb/s
Channel(s)                               : 6 channels
Channel positions                        : Front: L C R, Side: L R, LFE
Sampling rate                            : 48.0 kHz
Frame rate                               : 31.250 FPS (1536 spf)
Bit depth                                : 16 bits
Compression mode                         : Lossy
Stream size                              : 13.7 MiB (3%)
Download
***Hidden content cannot be quoted.***
A