Master Miley Cyrus - Wrecking Ball (Master-1080p)

NCURBAN

Well-Known Member
Administrative
May 25, 2016
3,347
3,593
113
Miley Cyrus - Wrecking Ball (Master-1080p)

Gener: Pop
Released: Sep 09, 2013
Copyright: 2013 RCA Records, a division of Sony Music Entertainment
Code:
Format                                   : MPEG-4
Format profile                           : QuickTime
Codec ID                                 : qt   2005.03 (qt  )
File size                                : 402 MiB
Duration                                 : 3 min 44 s
Overall bit rate mode                    : Variable
Overall bit rate                         : 15.0 Mb/s
Encoded date                             : UTC 2016-05-10 00:24:11
Tagged date                              : UTC 2016-05-10 00:24:15
Writing library                          : Apple QuickTime

Video
ID                                       : 2
Format                                   : AVC
Format/Info                              : Advanced Video Codec
Format profile                           : Main@L4.1
Format settings, CABAC                   : No
Format settings, ReFrames                : 2 frames
Format settings, GOP                     : M=1, N=48
Codec ID                                 : avc1
Codec ID/Info                            : Advanced Video Coding
Duration                                 : 3 min 44 s
Duration_LastFrame                       : -31 ms
Bit rate mode                            : Variable
Bit rate                                 : 14.7 Mb/s
Maximum bit rate                         : 20.5 Mb/s
Width                                    : 1 920 pixels
Clean aperture width                     : 1 888 pixels
Height                                   : 1 080 pixels
Clean aperture height                    : 1 062 pixels
Display aspect ratio                     : 16:9
Clean aperture display aspect ratio      : 16:9
Frame rate mode                          : Constant
Frame rate                               : 23.976 (24000/1001) FPS
Color space                              : YUV
Chroma subsampling                       : 4:2:0
Bit depth                                : 8 bits
Scan type                                : Progressive
Bits/(Pixel*Frame)                       : 0.296
Stream size                              : 394 MiB (98%)
Language                                 : English
Encoded date                             : UTC 2016-05-10 00:24:02
Tagged date                              : UTC 2016-05-10 00:24:15
Color range                              : Limited
Color primaries                          : BT.709
Transfer characteristics                 : BT.709
Matrix coefficients                      : BT.709

Audio
ID                                       : 1
Format                                   : AAC
Format/Info                              : Advanced Audio Codec
Format profile                           : LC
Codec ID                                 : 40
Duration                                 : 3 min 44 s
Source duration                          : 3 min 44 s
Bit rate mode                            : Constant
Bit rate                                 : 320 kb/s
Channel(s)                               : 2 channels
Channel positions                        : Front: L R
Sampling rate                            : 48.0 kHz
Frame rate                               : 46.875 FPS (1024 spf)
Compression mode                         : Lossy
Stream size                              : 8.39 MiB (2%)
Source stream size                       : 8.39 MiB (2%)
Language                                 : English
Encoded date                             : UTC 2016-05-10 00:24:02
Tagged date                              : UTC 2016-05-10 00:24:15
Download
[HIDE-REPLY]MEGA[/HIDE-REPLY]
 

CondomMan

Member
Registered
Oct 21, 2017
91
0
6
26
Miley Cyrus - Wrecking Ball (Master-1080p)



Code:
Format                                   : MPEG-4
Format profile                           : QuickTime
Codec ID                                 : qt   2005.03 (qt  )
File size                                : 402 MiB
Duration                                 : 3 min 44 s
Overall bit rate mode                    : Variable
Overall bit rate                         : 15.0 Mb/s
Encoded date                             : UTC 2016-05-10 00:24:11
Tagged date                              : UTC 2016-05-10 00:24:15
Writing library                          : Apple QuickTime

Video
ID                                       : 2
Format                                   : AVC
Format/Info                              : Advanced Video Codec
Format profile                           : Main@L4.1
Format settings, CABAC                   : No
Format settings, ReFrames                : 2 frames
Format settings, GOP                     : M=1, N=48
Codec ID                                 : avc1
Codec ID/Info                            : Advanced Video Coding
Duration                                 : 3 min 44 s
Duration_LastFrame                       : -31 ms
Bit rate mode                            : Variable
Bit rate                                 : 14.7 Mb/s
Maximum bit rate                         : 20.5 Mb/s
Width                                    : 1 920 pixels
Clean aperture width                     : 1 888 pixels
Height                                   : 1 080 pixels
Clean aperture height                    : 1 062 pixels
Display aspect ratio                     : 16:9
Clean aperture display aspect ratio      : 16:9
Frame rate mode                          : Constant
Frame rate                               : 23.976 (24000/1001) FPS
Color space                              : YUV
Chroma subsampling                       : 4:2:0
Bit depth                                : 8 bits
Scan type                                : Progressive
Bits/(Pixel*Frame)                       : 0.296
Stream size                              : 394 MiB (98%)
Language                                 : English
Encoded date                             : UTC 2016-05-10 00:24:02
Tagged date                              : UTC 2016-05-10 00:24:15
Color range                              : Limited
Color primaries                          : BT.709
Transfer characteristics                 : BT.709
Matrix coefficients                      : BT.709

Audio
ID                                       : 1
Format                                   : AAC
Format/Info                              : Advanced Audio Codec
Format profile                           : LC
Codec ID                                 : 40
Duration                                 : 3 min 44 s
Source duration                          : 3 min 44 s
Bit rate mode                            : Constant
Bit rate                                 : 320 kb/s
Channel(s)                               : 2 channels
Channel positions                        : Front: L R
Sampling rate                            : 48.0 kHz
Frame rate                               : 46.875 FPS (1024 spf)
Compression mode                         : Lossy
Stream size                              : 8.39 MiB (2%)
Source stream size                       : 8.39 MiB (2%)
Language                                 : English
Encoded date                             : UTC 2016-05-10 00:24:02
Tagged date                              : UTC 2016-05-10 00:24:15
Download
***Hidden content cannot be quoted.***
 

KDHN

New Member
Registered
Dec 1, 2018
12
0
1
39
Miley Cyrus - Wrecking Ball (Master-1080p)



Code:
Format                                   : MPEG-4
Format profile                           : QuickTime
Codec ID                                 : qt   2005.03 (qt  )
File size                                : 402 MiB
Duration                                 : 3 min 44 s
Overall bit rate mode                    : Variable
Overall bit rate                         : 15.0 Mb/s
Encoded date                             : UTC 2016-05-10 00:24:11
Tagged date                              : UTC 2016-05-10 00:24:15
Writing library                          : Apple QuickTime

Video
ID                                       : 2
Format                                   : AVC
Format/Info                              : Advanced Video Codec
Format profile                           : Main@L4.1
Format settings, CABAC                   : No
Format settings, ReFrames                : 2 frames
Format settings, GOP                     : M=1, N=48
Codec ID                                 : avc1
Codec ID/Info                            : Advanced Video Coding
Duration                                 : 3 min 44 s
Duration_LastFrame                       : -31 ms
Bit rate mode                            : Variable
Bit rate                                 : 14.7 Mb/s
Maximum bit rate                         : 20.5 Mb/s
Width                                    : 1 920 pixels
Clean aperture width                     : 1 888 pixels
Height                                   : 1 080 pixels
Clean aperture height                    : 1 062 pixels
Display aspect ratio                     : 16:9
Clean aperture display aspect ratio      : 16:9
Frame rate mode                          : Constant
Frame rate                               : 23.976 (24000/1001) FPS
Color space                              : YUV
Chroma subsampling                       : 4:2:0
Bit depth                                : 8 bits
Scan type                                : Progressive
Bits/(Pixel*Frame)                       : 0.296
Stream size                              : 394 MiB (98%)
Language                                 : English
Encoded date                             : UTC 2016-05-10 00:24:02
Tagged date                              : UTC 2016-05-10 00:24:15
Color range                              : Limited
Color primaries                          : BT.709
Transfer characteristics                 : BT.709
Matrix coefficients                      : BT.709

Audio
ID                                       : 1
Format                                   : AAC
Format/Info                              : Advanced Audio Codec
Format profile                           : LC
Codec ID                                 : 40
Duration                                 : 3 min 44 s
Source duration                          : 3 min 44 s
Bit rate mode                            : Constant
Bit rate                                 : 320 kb/s
Channel(s)                               : 2 channels
Channel positions                        : Front: L R
Sampling rate                            : 48.0 kHz
Frame rate                               : 46.875 FPS (1024 spf)
Compression mode                         : Lossy
Stream size                              : 8.39 MiB (2%)
Source stream size                       : 8.39 MiB (2%)
Language                                 : English
Encoded date                             : UTC 2016-05-10 00:24:02
Tagged date                              : UTC 2016-05-10 00:24:15
Download
***Hidden content cannot be quoted.***
thanks
 

Nyinyi

Member
Registered
Dec 29, 2018
75
0
6
28
H
Miley Cyrus - Wrecking Ball (Master-1080p)



Code:
Format                                   : MPEG-4
Format profile                           : QuickTime
Codec ID                                 : qt   2005.03 (qt  )
File size                                : 402 MiB
Duration                                 : 3 min 44 s
Overall bit rate mode                    : Variable
Overall bit rate                         : 15.0 Mb/s
Encoded date                             : UTC 2016-05-10 00:24:11
Tagged date                              : UTC 2016-05-10 00:24:15
Writing library                          : Apple QuickTime

Video
ID                                       : 2
Format                                   : AVC
Format/Info                              : Advanced Video Codec
Format profile                           : Main@L4.1
Format settings, CABAC                   : No
Format settings, ReFrames                : 2 frames
Format settings, GOP                     : M=1, N=48
Codec ID                                 : avc1
Codec ID/Info                            : Advanced Video Coding
Duration                                 : 3 min 44 s
Duration_LastFrame                       : -31 ms
Bit rate mode                            : Variable
Bit rate                                 : 14.7 Mb/s
Maximum bit rate                         : 20.5 Mb/s
Width                                    : 1 920 pixels
Clean aperture width                     : 1 888 pixels
Height                                   : 1 080 pixels
Clean aperture height                    : 1 062 pixels
Display aspect ratio                     : 16:9
Clean aperture display aspect ratio      : 16:9
Frame rate mode                          : Constant
Frame rate                               : 23.976 (24000/1001) FPS
Color space                              : YUV
Chroma subsampling                       : 4:2:0
Bit depth                                : 8 bits
Scan type                                : Progressive
Bits/(Pixel*Frame)                       : 0.296
Stream size                              : 394 MiB (98%)
Language                                 : English
Encoded date                             : UTC 2016-05-10 00:24:02
Tagged date                              : UTC 2016-05-10 00:24:15
Color range                              : Limited
Color primaries                          : BT.709
Transfer characteristics                 : BT.709
Matrix coefficients                      : BT.709

Audio
ID                                       : 1
Format                                   : AAC
Format/Info                              : Advanced Audio Codec
Format profile                           : LC
Codec ID                                 : 40
Duration                                 : 3 min 44 s
Source duration                          : 3 min 44 s
Bit rate mode                            : Constant
Bit rate                                 : 320 kb/s
Channel(s)                               : 2 channels
Channel positions                        : Front: L R
Sampling rate                            : 48.0 kHz
Frame rate                               : 46.875 FPS (1024 spf)
Compression mode                         : Lossy
Stream size                              : 8.39 MiB (2%)
Source stream size                       : 8.39 MiB (2%)
Language                                 : English
Encoded date                             : UTC 2016-05-10 00:24:02
Tagged date                              : UTC 2016-05-10 00:24:15
Download
***Hidden content cannot be quoted.***
I
 

miamia

Member
Registered
Jan 23, 2019
54
0
6
19
Miley Cyrus - Wrecking Ball (Master-1080p)



Code:
Format                                   : MPEG-4
Format profile                           : QuickTime
Codec ID                                 : qt   2005.03 (qt  )
File size                                : 402 MiB
Duration                                 : 3 min 44 s
Overall bit rate mode                    : Variable
Overall bit rate                         : 15.0 Mb/s
Encoded date                             : UTC 2016-05-10 00:24:11
Tagged date                              : UTC 2016-05-10 00:24:15
Writing library                          : Apple QuickTime

Video
ID                                       : 2
Format                                   : AVC
Format/Info                              : Advanced Video Codec
Format profile                           : Main@L4.1
Format settings, CABAC                   : No
Format settings, ReFrames                : 2 frames
Format settings, GOP                     : M=1, N=48
Codec ID                                 : avc1
Codec ID/Info                            : Advanced Video Coding
Duration                                 : 3 min 44 s
Duration_LastFrame                       : -31 ms
Bit rate mode                            : Variable
Bit rate                                 : 14.7 Mb/s
Maximum bit rate                         : 20.5 Mb/s
Width                                    : 1 920 pixels
Clean aperture width                     : 1 888 pixels
Height                                   : 1 080 pixels
Clean aperture height                    : 1 062 pixels
Display aspect ratio                     : 16:9
Clean aperture display aspect ratio      : 16:9
Frame rate mode                          : Constant
Frame rate                               : 23.976 (24000/1001) FPS
Color space                              : YUV
Chroma subsampling                       : 4:2:0
Bit depth                                : 8 bits
Scan type                                : Progressive
Bits/(Pixel*Frame)                       : 0.296
Stream size                              : 394 MiB (98%)
Language                                 : English
Encoded date                             : UTC 2016-05-10 00:24:02
Tagged date                              : UTC 2016-05-10 00:24:15
Color range                              : Limited
Color primaries                          : BT.709
Transfer characteristics                 : BT.709
Matrix coefficients                      : BT.709

Audio
ID                                       : 1
Format                                   : AAC
Format/Info                              : Advanced Audio Codec
Format profile                           : LC
Codec ID                                 : 40
Duration                                 : 3 min 44 s
Source duration                          : 3 min 44 s
Bit rate mode                            : Constant
Bit rate                                 : 320 kb/s
Channel(s)                               : 2 channels
Channel positions                        : Front: L R
Sampling rate                            : 48.0 kHz
Frame rate                               : 46.875 FPS (1024 spf)
Compression mode                         : Lossy
Stream size                              : 8.39 MiB (2%)
Source stream size                       : 8.39 MiB (2%)
Language                                 : English
Encoded date                             : UTC 2016-05-10 00:24:02
Tagged date                              : UTC 2016-05-10 00:24:15
Download
***Hidden content cannot be quoted.***
thanks