HDTV Miranda Lambert - Vice (The Tonight Show Starring Jimmy Fallon 2016) [HDTV-1080i]-HDMania

NCURBAN

Well-Known Member
Administrative
May 25, 2016
3,358
4,092
113
Miranda Lambert - Vice (The Tonight Show Starring Jimmy Fallon 2016) [HDTV-1080i]-HDMania


Gener: Country
At: The Tonight Show Starring Jimmy Fallon
Date: 18 Nov, 2016
Code:
Format                                   : MPEG-TS
File size                                : 266 MiB
Duration                                 : 4 min 32 s
Overall bit rate mode                    : Variable
Overall bit rate                         : 8 201 kb/s

Video
ID                                       : 1312 (0x520)
Menu ID                                  : 541 (0x21D)
Format                                   : AVC
Format/Info                              : Advanced Video Codec
Format profile                           : High@L4
Format settings, CABAC                   : Yes
Format settings, ReFrames                : 4 frames
Format settings, GOP                     : M=3, N=15
Codec ID                                 : 27
Duration                                 : 4 min 32 s
Bit rate                                 : 7 020 kb/s
Width                                    : 1 920 pixels
Height                                   : 1 080 pixels
Display aspect ratio                     : 16:9
Frame rate                               : 29.970 (30000/1001) FPS
Standard                                 : Component
Color space                              : YUV
Chroma subsampling                       : 4:2:0
Bit depth                                : 8 bits
Scan type                                : MBAFF
Scan type, store method                  : Interleaved fields
Scan order                               : Top Field First
Bits/(Pixel*Frame)                       : 0.113
Stream size                              : 228 MiB (86%)
Color range                              : Limited
Color primaries                          : BT.709
Transfer characteristics                 : BT.709
Matrix coefficients                      : BT.709

Audio #1
ID                                       : 1313 (0x521)
Menu ID                                  : 541 (0x21D)
Format                                   : AC-3
Format/Info                              : Audio Coding 3
Mode extension                           : CM (complete main)
Format settings, Endianness              : Big
Codec ID                                 : 129
Duration                                 : 4 min 32 s
Bit rate mode                            : Constant
Bit rate                                 : 384 kb/s
Channel(s)                               : 6 channels
Channel positions                        : Front: L C R, Side: L R, LFE
Sampling rate                            : 48.0 kHz
Frame rate                               : 31.250 FPS (1536 spf)
Bit depth                                : 16 bits
Compression mode                         : Lossy
Delay relative to video                  : -33 ms
Stream size                              : 12.5 MiB (5%)
Language                                 : English
Download
[HIDE-REPLY]MEGA[/HIDE-REPLY]