FEED Muse - Glastonbury 2016 (FEED-1080)-HDMania

NCURBAN

Well-Known Member
Administrative
May 25, 2016
3,358
4,084
113
Muse - Glastonbury 2016 (FEED-1080)-HDMania


Setlist:
  1. Psycho
  2. Reapers
  3. Plug In Baby
  4. Dead Inside
  5. Map of the Problematique
  6. The 2nd Law: Isolated System
  7. The Handler
  8. Supermassive Black Hole
  9. Starlight
  10. Munich Jam
  11. Madness
  12. Interlude
  13. Hysteria
  14. Time Is Running Out
  15. Stockholm Syndrome
  16. The Globalist (With fireworks; Tour debut)
  17. Drones
  18. Uprising
  19. Mercy
  20. Knights of Cydonia

Code:
Format                                   : MPEG-TS
File size                                : 8.89 GiB
Duration                                 : 1h 45mn
Overall bit rate mode                    : Variable
Overall bit rate                         : 12.1 Mbps

Video
ID                                       : 33 (0x21)
Menu ID                                  : 1 (0x1)
Format                                   : AVC
Format/Info                              : Advanced Video Codec
Format profile                           : High@L4.1
Format settings, CABAC                   : Yes
Format settings, ReFrames                : 4 frames
Format settings, GOP                     : M=4, N=32
Codec ID                                 : 27
Duration                                 : 1h 45mn
Bit rate                                 : 11.2 Mbps
Width                                    : 1 920 pixels
Height                                   : 1 080 pixels
Display aspect ratio                     : 16:9
Frame rate                               : 25.000 fps
Standard                                 : PAL
Color space                              : YUV
Chroma subsampling                       : 4:2:0
Bit depth                                : 8 bits
Scan type                                : Interlaced
Scan order                               : Top Field First
Bits/(Pixel*Frame)                       : 0.217
Stream size                              : 8.26 GiB (93%)
Color range                              : Limited
Color primaries                          : BT.709
Transfer characteristics                 : BT.709
Matrix coefficients                      : BT.709

Audio
ID                                       : 34 (0x22)
Menu ID                                  : 1 (0x1)
Format                                   : MPEG Audio
Format version                           : Version 1
Format profile                           : Layer 2
Codec ID                                 : 4
Duration                                 : 1h 45mn
Bit rate mode                            : Constant
Bit rate                                 : 256 Kbps
Channel(s)                               : 2 channels
Sampling rate                            : 48.0 KHz
Compression mode                         : Lossy
Delay relative to video                  : 70ms
Stream size                              : 192 MiB (2%)
Language                                 : English
Language, more info                      : Clean effects

Download
You must reply before you can see the hidden data contained here.