HDTV Nelly Furtado - Cold Hard Truth (Late Night With Seth Meyers 2017) [HDTV-1080i]

NCURBAN

Well-Known Member
Administrative
May 25, 2016
3,360
4,220
113
Nelly Furtado - Cold Hard Truth (Late Night With Seth Meyers 2017) [HDTV-1080i]


Gener: Pop
At: Late Night With Seth Meyers
Date: Jan 27, 2017
Code:
Format                                   : MPEG-TS
File size                                : 618 MiB
Duration                                 : 3 min 27 s
Overall bit rate mode                    : Variable
Overall bit rate                         : 24.9 Mb/s
Movie name                               : Late Night with Seth Meyers
Law rating                               : TV-14 (L)

Video
ID                                       : 513 (0x201)
Menu ID                                  : 1 (0x1)
Format                                   : AVC
Format/Info                              : Advanced Video Codec
Format profile                           : High@L4.1
Format settings, CABAC                   : Yes
Format settings, ReFrames                : 4 frames
Codec ID                                 : 27
Duration                                 : 3 min 27 s
Bit rate                                 : 23.3 Mb/s
Width                                    : 1 920 pixels
Height                                   : 1 080 pixels
Display aspect ratio                     : 16:9
Frame rate                               : 29.970 (30000/1001) FPS
Color space                              : YUV
Chroma subsampling                       : 4:2:0
Bit depth                                : 8 bits
Scan type                                : Interlaced
Scan type, store method                  : Separated fields
Scan order                               : Top Field First
Bits/(Pixel*Frame)                       : 0.375
Stream size                              : 577 MiB (93%)
Color range                              : Full
Color primaries                          : BT.709
Transfer characteristics                 : BT.709
Matrix coefficients                      : BT.709

Audio
ID                                       : 514 (0x202)
Menu ID                                  : 1 (0x1)
Format                                   : AC-3
Format/Info                              : Audio Coding 3
Mode extension                           : CM (complete main)
Format settings, Endianness              : Big
Codec ID                                 : 129
Duration                                 : 3 min 27 s
Bit rate mode                            : Constant
Bit rate                                 : 384 kb/s
Channel(s)                               : 6 channels
Channel positions                        : Front: L C R, Side: L R, LFE
Sampling rate                            : 48.0 kHz
Frame rate                               : 31.250 FPS (1536 spf)
Bit depth                                : 16 bits
Compression mode                         : Lossy
Stream size                              : 9.52 MiB (2%)
Language                                 : English

Download
You must reply before you can see the hidden data contained here.