HDTV Nicki Minaj - NBA All-Star Game 2012 (HDTV-1080i)-TrollHD

NCURBAN

Well-Known Member
Administrative
May 25, 2016
3,347
3,614
113
Nicki Minaj - NBA All-Star Game 2012 (HDTV-1080i)-TrollHD


Setlist:
  1. Moment 4 Life
  2. Turn Me On (David Guetta cover)
  3. Starships
  4. Super Bass
Code:
Format                                   : MPEG-TS
File size                                : 1.79 GiB
Duration                                 : 14mn 20s
Overall bit rate mode                    : Variable
Overall bit rate                         : 17.9 Mbps
Movie name                               : TNT Sports
Law rating                               : None

Video
ID                                       : 621 (0x26D)
Menu ID                                  : 1 (0x1)
Format                                   : MPEG Video
Format version                           : Version 2
Format profile                           : Main@High
Format settings, BVOP                    : Yes
Format settings, Matrix                  : Custom
Format settings, GOP                     : M=3, N=15
Format settings, picture structure       : Frame
Codec ID                                 : 2
Duration                                 : 14mn 19s
Bit rate mode                            : Variable
Bit rate                                 : 16.5 Mbps
Maximum bit rate                         : 80.0 Mbps
Width                                    : 1 920 pixels
Height                                   : 1 080 pixels
Display aspect ratio                     : 16:9
Frame rate                               : 29.970 fps
Standard                                 : Component
Color space                              : YUV
Chroma subsampling                       : 4:2:0
Bit depth                                : 8 bits
Scan type                                : Interlaced
Scan order                               : Top Field First
Compression mode                         : Lossy
Bits/(Pixel*Frame)                       : 0.266
Time code of first frame                 : 00:00:00;00
Time code source                         : Group of pictures header
GOP, Open/Closed                         : Open
GOP, Open/Closed of first frame          : Closed
Stream size                              : 1.65 GiB (93%)
Color primaries                          : BT.709
Transfer characteristics                 : BT.709
Matrix coefficients                      : BT.709

Audio
ID                                       : 622 (0x26E)
Menu ID                                  : 1 (0x1)
Format                                   : AC-3
Format/Info                              : Audio Coding 3
Mode extension                           : CM (complete main)
Format settings, Endianness              : Big
Codec ID                                 : 129
Duration                                 : 14mn 19s
Bit rate mode                            : Constant
Bit rate                                 : 448 Kbps
Channel(s)                               : 6 channels
Channel positions                        : Front: L C R, Side: L R, LFE
Sampling rate                            : 48.0 KHz
Compression mode                         : Lossy
Delay relative to video                  : 27ms
Stream size                              : 45.9 MiB (3%)
Language                                 : English

Text #1
ID                                       : 621 (0x26D)-CC1
Menu ID                                  : 1 (0x1)
Format                                   : EIA-608
Muxing mode                              : A/53 / DTVCC Transport
Muxing mode, more info                   : Muxed in Video #1
Duration                                 : 14mn 19s
Bit rate mode                            : Constant
Stream size                              : 0.00 Byte (0%)

Text #2
ID                                       : 621 (0x26D)-CC3
Menu ID                                  : 1 (0x1)
Format                                   : EIA-608
Muxing mode                              : A/53 / DTVCC Transport
Muxing mode, more info                   : Muxed in Video #1
Duration                                 : 14mn 19s
Bit rate mode                            : Constant
Stream size                              : 0.00 Byte (0%)

Download
[HIDE-REPLY]MEGA[/HIDE-REPLY]
 

succamyx

New Member
Registered
Jan 13, 2019
7
0
1
21
Nicki Minaj - NBA All-Star Game 2012 (HDTV-1080i)-TrollHD


Setlist:

  1. Moment 4 Life
    Turn Me On (David Guetta cover)
    Starships
    Super Bass
Code:
Format                                   : MPEG-TS
File size                                : 1.79 GiB
Duration                                 : 14mn 20s
Overall bit rate mode                    : Variable
Overall bit rate                         : 17.9 Mbps
Movie name                               : TNT Sports
Law rating                               : None

Video
ID                                       : 621 (0x26D)
Menu ID                                  : 1 (0x1)
Format                                   : MPEG Video
Format version                           : Version 2
Format profile                           : Main@High
Format settings, BVOP                    : Yes
Format settings, Matrix                  : Custom
Format settings, GOP                     : M=3, N=15
Format settings, picture structure       : Frame
Codec ID                                 : 2
Duration                                 : 14mn 19s
Bit rate mode                            : Variable
Bit rate                                 : 16.5 Mbps
Maximum bit rate                         : 80.0 Mbps
Width                                    : 1 920 pixels
Height                                   : 1 080 pixels
Display aspect ratio                     : 16:9
Frame rate                               : 29.970 fps
Standard                                 : Component
Color space                              : YUV
Chroma subsampling                       : 4:2:0
Bit depth                                : 8 bits
Scan type                                : Interlaced
Scan order                               : Top Field First
Compression mode                         : Lossy
Bits/(Pixel*Frame)                       : 0.266
Time code of first frame                 : 00:00:00;00
Time code source                         : Group of pictures header
GOP, Open/Closed                         : Open
GOP, Open/Closed of first frame          : Closed
Stream size                              : 1.65 GiB (93%)
Color primaries                          : BT.709
Transfer characteristics                 : BT.709
Matrix coefficients                      : BT.709

Audio
ID                                       : 622 (0x26E)
Menu ID                                  : 1 (0x1)
Format                                   : AC-3
Format/Info                              : Audio Coding 3
Mode extension                           : CM (complete main)
Format settings, Endianness              : Big
Codec ID                                 : 129
Duration                                 : 14mn 19s
Bit rate mode                            : Constant
Bit rate                                 : 448 Kbps
Channel(s)                               : 6 channels
Channel positions                        : Front: L C R, Side: L R, LFE
Sampling rate                            : 48.0 KHz
Compression mode                         : Lossy
Delay relative to video                  : 27ms
Stream size                              : 45.9 MiB (3%)
Language                                 : English

Text #1
ID                                       : 621 (0x26D)-CC1
Menu ID                                  : 1 (0x1)
Format                                   : EIA-608
Muxing mode                              : A/53 / DTVCC Transport
Muxing mode, more info                   : Muxed in Video #1
Duration                                 : 14mn 19s
Bit rate mode                            : Constant
Stream size                              : 0.00 Byte (0%)

Text #2
ID                                       : 621 (0x26D)-CC3
Menu ID                                  : 1 (0x1)
Format                                   : EIA-608
Muxing mode                              : A/53 / DTVCC Transport
Muxing mode, more info                   : Muxed in Video #1
Duration                                 : 14mn 19s
Bit rate mode                            : Constant
Stream size                              : 0.00 Byte (0%)

Download
***Hidden content cannot be quoted.***
thank you
 

Lodipam

New Member
Registered
Apr 19, 2019
2
0
1
20
Nicki Minaj - NBA All-Star Game 2012 (HDTV-1080i)-TrollHD


Setlist:

  1. Moment 4 Life
    Turn Me On (David Guetta cover)
    Starships
    Super Bass
Code:
Format                                   : MPEG-TS
File size                                : 1.79 GiB
Duration                                 : 14mn 20s
Overall bit rate mode                    : Variable
Overall bit rate                         : 17.9 Mbps
Movie name                               : TNT Sports
Law rating                               : None

Video
ID                                       : 621 (0x26D)
Menu ID                                  : 1 (0x1)
Format                                   : MPEG Video
Format version                           : Version 2
Format profile                           : Main@High
Format settings, BVOP                    : Yes
Format settings, Matrix                  : Custom
Format settings, GOP                     : M=3, N=15
Format settings, picture structure       : Frame
Codec ID                                 : 2
Duration                                 : 14mn 19s
Bit rate mode                            : Variable
Bit rate                                 : 16.5 Mbps
Maximum bit rate                         : 80.0 Mbps
Width                                    : 1 920 pixels
Height                                   : 1 080 pixels
Display aspect ratio                     : 16:9
Frame rate                               : 29.970 fps
Standard                                 : Component
Color space                              : YUV
Chroma subsampling                       : 4:2:0
Bit depth                                : 8 bits
Scan type                                : Interlaced
Scan order                               : Top Field First
Compression mode                         : Lossy
Bits/(Pixel*Frame)                       : 0.266
Time code of first frame                 : 00:00:00;00
Time code source                         : Group of pictures header
GOP, Open/Closed                         : Open
GOP, Open/Closed of first frame          : Closed
Stream size                              : 1.65 GiB (93%)
Color primaries                          : BT.709
Transfer characteristics                 : BT.709
Matrix coefficients                      : BT.709

Audio
ID                                       : 622 (0x26E)
Menu ID                                  : 1 (0x1)
Format                                   : AC-3
Format/Info                              : Audio Coding 3
Mode extension                           : CM (complete main)
Format settings, Endianness              : Big
Codec ID                                 : 129
Duration                                 : 14mn 19s
Bit rate mode                            : Constant
Bit rate                                 : 448 Kbps
Channel(s)                               : 6 channels
Channel positions                        : Front: L C R, Side: L R, LFE
Sampling rate                            : 48.0 KHz
Compression mode                         : Lossy
Delay relative to video                  : 27ms
Stream size                              : 45.9 MiB (3%)
Language                                 : English

Text #1
ID                                       : 621 (0x26D)-CC1
Menu ID                                  : 1 (0x1)
Format                                   : EIA-608
Muxing mode                              : A/53 / DTVCC Transport
Muxing mode, more info                   : Muxed in Video #1
Duration                                 : 14mn 19s
Bit rate mode                            : Constant
Stream size                              : 0.00 Byte (0%)

Text #2
ID                                       : 621 (0x26D)-CC3
Menu ID                                  : 1 (0x1)
Format                                   : EIA-608
Muxing mode                              : A/53 / DTVCC Transport
Muxing mode, more info                   : Muxed in Video #1
Duration                                 : 14mn 19s
Bit rate mode                            : Constant
Stream size                              : 0.00 Byte (0%)

Download
***Hidden content cannot be quoted.***
thnx
 

gff gf

Member
Registered
Jun 23, 2019
64
2
8
22
Nicki Minaj - NBA All-Star Game 2012 (HDTV-1080i)-TrollHD


Setlist:

  1. Moment 4 Life
    Turn Me On (David Guetta cover)
    Starships
    Super Bass
Code:
Format                                   : MPEG-TS
File size                                : 1.79 GiB
Duration                                 : 14mn 20s
Overall bit rate mode                    : Variable
Overall bit rate                         : 17.9 Mbps
Movie name                               : TNT Sports
Law rating                               : None

Video
ID                                       : 621 (0x26D)
Menu ID                                  : 1 (0x1)
Format                                   : MPEG Video
Format version                           : Version 2
Format profile                           : Main@High
Format settings, BVOP                    : Yes
Format settings, Matrix                  : Custom
Format settings, GOP                     : M=3, N=15
Format settings, picture structure       : Frame
Codec ID                                 : 2
Duration                                 : 14mn 19s
Bit rate mode                            : Variable
Bit rate                                 : 16.5 Mbps
Maximum bit rate                         : 80.0 Mbps
Width                                    : 1 920 pixels
Height                                   : 1 080 pixels
Display aspect ratio                     : 16:9
Frame rate                               : 29.970 fps
Standard                                 : Component
Color space                              : YUV
Chroma subsampling                       : 4:2:0
Bit depth                                : 8 bits
Scan type                                : Interlaced
Scan order                               : Top Field First
Compression mode                         : Lossy
Bits/(Pixel*Frame)                       : 0.266
Time code of first frame                 : 00:00:00;00
Time code source                         : Group of pictures header
GOP, Open/Closed                         : Open
GOP, Open/Closed of first frame          : Closed
Stream size                              : 1.65 GiB (93%)
Color primaries                          : BT.709
Transfer characteristics                 : BT.709
Matrix coefficients                      : BT.709

Audio
ID                                       : 622 (0x26E)
Menu ID                                  : 1 (0x1)
Format                                   : AC-3
Format/Info                              : Audio Coding 3
Mode extension                           : CM (complete main)
Format settings, Endianness              : Big
Codec ID                                 : 129
Duration                                 : 14mn 19s
Bit rate mode                            : Constant
Bit rate                                 : 448 Kbps
Channel(s)                               : 6 channels
Channel positions                        : Front: L C R, Side: L R, LFE
Sampling rate                            : 48.0 KHz
Compression mode                         : Lossy
Delay relative to video                  : 27ms
Stream size                              : 45.9 MiB (3%)
Language                                 : English

Text #1
ID                                       : 621 (0x26D)-CC1
Menu ID                                  : 1 (0x1)
Format                                   : EIA-608
Muxing mode                              : A/53 / DTVCC Transport
Muxing mode, more info                   : Muxed in Video #1
Duration                                 : 14mn 19s
Bit rate mode                            : Constant
Stream size                              : 0.00 Byte (0%)

Text #2
ID                                       : 621 (0x26D)-CC3
Menu ID                                  : 1 (0x1)
Format                                   : EIA-608
Muxing mode                              : A/53 / DTVCC Transport
Muxing mode, more info                   : Muxed in Video #1
Duration                                 : 14mn 19s
Bit rate mode                            : Constant
Stream size                              : 0.00 Byte (0%)

Download
***Hidden content cannot be quoted.***
 

Minajfav

Member
Registered
Nov 8, 2019
49
1
8
20
Nicki Minaj - NBA All-Star Game 2012 (HDTV-1080i)-TrollHD


Setlist:

  1. Moment 4 Life
    Turn Me On (David Guetta cover)
    Starships
    Super Bass
Code:
Format                                   : MPEG-TS
File size                                : 1.79 GiB
Duration                                 : 14mn 20s
Overall bit rate mode                    : Variable
Overall bit rate                         : 17.9 Mbps
Movie name                               : TNT Sports
Law rating                               : None

Video
ID                                       : 621 (0x26D)
Menu ID                                  : 1 (0x1)
Format                                   : MPEG Video
Format version                           : Version 2
Format profile                           : Main@High
Format settings, BVOP                    : Yes
Format settings, Matrix                  : Custom
Format settings, GOP                     : M=3, N=15
Format settings, picture structure       : Frame
Codec ID                                 : 2
Duration                                 : 14mn 19s
Bit rate mode                            : Variable
Bit rate                                 : 16.5 Mbps
Maximum bit rate                         : 80.0 Mbps
Width                                    : 1 920 pixels
Height                                   : 1 080 pixels
Display aspect ratio                     : 16:9
Frame rate                               : 29.970 fps
Standard                                 : Component
Color space                              : YUV
Chroma subsampling                       : 4:2:0
Bit depth                                : 8 bits
Scan type                                : Interlaced
Scan order                               : Top Field First
Compression mode                         : Lossy
Bits/(Pixel*Frame)                       : 0.266
Time code of first frame                 : 00:00:00;00
Time code source                         : Group of pictures header
GOP, Open/Closed                         : Open
GOP, Open/Closed of first frame          : Closed
Stream size                              : 1.65 GiB (93%)
Color primaries                          : BT.709
Transfer characteristics                 : BT.709
Matrix coefficients                      : BT.709

Audio
ID                                       : 622 (0x26E)
Menu ID                                  : 1 (0x1)
Format                                   : AC-3
Format/Info                              : Audio Coding 3
Mode extension                           : CM (complete main)
Format settings, Endianness              : Big
Codec ID                                 : 129
Duration                                 : 14mn 19s
Bit rate mode                            : Constant
Bit rate                                 : 448 Kbps
Channel(s)                               : 6 channels
Channel positions                        : Front: L C R, Side: L R, LFE
Sampling rate                            : 48.0 KHz
Compression mode                         : Lossy
Delay relative to video                  : 27ms
Stream size                              : 45.9 MiB (3%)
Language                                 : English

Text #1
ID                                       : 621 (0x26D)-CC1
Menu ID                                  : 1 (0x1)
Format                                   : EIA-608
Muxing mode                              : A/53 / DTVCC Transport
Muxing mode, more info                   : Muxed in Video #1
Duration                                 : 14mn 19s
Bit rate mode                            : Constant
Stream size                              : 0.00 Byte (0%)

Text #2
ID                                       : 621 (0x26D)-CC3
Menu ID                                  : 1 (0x1)
Format                                   : EIA-608
Muxing mode                              : A/53 / DTVCC Transport
Muxing mode, more info                   : Muxed in Video #1
Duration                                 : 14mn 19s
Bit rate mode                            : Constant
Stream size                              : 0.00 Byte (0%)

Download
***Hidden content cannot be quoted.***
Thanks
 

theffinbest

New Member
Registered
Nov 14, 2018
4
0
1
23
THANKS
Nicki Minaj - NBA All-Star Game 2012 (HDTV-1080i)-TrollHD


Setlist:

  1. Moment 4 Life
    Turn Me On (David Guetta cover)
    Starships
    Super Bass
Code:
Format                                   : MPEG-TS
File size                                : 1.79 GiB
Duration                                 : 14mn 20s
Overall bit rate mode                    : Variable
Overall bit rate                         : 17.9 Mbps
Movie name                               : TNT Sports
Law rating                               : None

Video
ID                                       : 621 (0x26D)
Menu ID                                  : 1 (0x1)
Format                                   : MPEG Video
Format version                           : Version 2
Format profile                           : Main@High
Format settings, BVOP                    : Yes
Format settings, Matrix                  : Custom
Format settings, GOP                     : M=3, N=15
Format settings, picture structure       : Frame
Codec ID                                 : 2
Duration                                 : 14mn 19s
Bit rate mode                            : Variable
Bit rate                                 : 16.5 Mbps
Maximum bit rate                         : 80.0 Mbps
Width                                    : 1 920 pixels
Height                                   : 1 080 pixels
Display aspect ratio                     : 16:9
Frame rate                               : 29.970 fps
Standard                                 : Component
Color space                              : YUV
Chroma subsampling                       : 4:2:0
Bit depth                                : 8 bits
Scan type                                : Interlaced
Scan order                               : Top Field First
Compression mode                         : Lossy
Bits/(Pixel*Frame)                       : 0.266
Time code of first frame                 : 00:00:00;00
Time code source                         : Group of pictures header
GOP, Open/Closed                         : Open
GOP, Open/Closed of first frame          : Closed
Stream size                              : 1.65 GiB (93%)
Color primaries                          : BT.709
Transfer characteristics                 : BT.709
Matrix coefficients                      : BT.709

Audio
ID                                       : 622 (0x26E)
Menu ID                                  : 1 (0x1)
Format                                   : AC-3
Format/Info                              : Audio Coding 3
Mode extension                           : CM (complete main)
Format settings, Endianness              : Big
Codec ID                                 : 129
Duration                                 : 14mn 19s
Bit rate mode                            : Constant
Bit rate                                 : 448 Kbps
Channel(s)                               : 6 channels
Channel positions                        : Front: L C R, Side: L R, LFE
Sampling rate                            : 48.0 KHz
Compression mode                         : Lossy
Delay relative to video                  : 27ms
Stream size                              : 45.9 MiB (3%)
Language                                 : English

Text #1
ID                                       : 621 (0x26D)-CC1
Menu ID                                  : 1 (0x1)
Format                                   : EIA-608
Muxing mode                              : A/53 / DTVCC Transport
Muxing mode, more info                   : Muxed in Video #1
Duration                                 : 14mn 19s
Bit rate mode                            : Constant
Stream size                              : 0.00 Byte (0%)

Text #2
ID                                       : 621 (0x26D)-CC3
Menu ID                                  : 1 (0x1)
Format                                   : EIA-608
Muxing mode                              : A/53 / DTVCC Transport
Muxing mode, more info                   : Muxed in Video #1
Duration                                 : 14mn 19s
Bit rate mode                            : Constant
Stream size                              : 0.00 Byte (0%)

Download
***Hidden content cannot be quoted.***