Master Nicki Minaj - Right Thru Me (Master-1080p)

NCURBAN

Well-Known Member
Administrative
May 25, 2016
3,360
4,185
113
Nicki Minaj - Right Thru Me (Master-1080p)



Genres: Hip-Hop/Rap, R&B
Released: Oct 03, 2010​

Code:
Format                                   : MPEG-4
Format profile                           : QuickTime
Codec ID                                 : qt  
File size                                : 514 MiB
Duration                                 : 4mn 4s
Overall bit rate mode                    : Variable
Overall bit rate                         : 17.7 Mbps
Encoded date                             : UTC 2016-05-24 21:43:08
Tagged date                              : UTC 2016-05-24 21:51:46
Writing library                          : Apple QuickTime

Video
ID                                       : 2
Format                                   : AVC
Format/Info                              : Advanced Video Codec
Format profile                           : Main@L5.1
Format settings, CABAC                   : No
Format settings, ReFrames                : 2 frames
Format settings, GOP                     : M=2, N=48
Codec ID                                 : avc1
Codec ID/Info                            : Advanced Video Coding
Duration                                 : 4mn 4s
Duration_FirstFrame                      : -33ms
Duration_LastFrame                       : -11ms
Bit rate mode                            : Variable
Bit rate                                 : 17.4 Mbps
Maximum bit rate                         : 20.5 Mbps
Width                                    : 1 920 pixels
Clean aperture width                     : 1 888 pixels
Height                                   : 1 080 pixels
Clean aperture height                    : 1 062 pixels
Display aspect ratio                     : 16:9
Clean aperture display aspect ratio      : 16:9
Frame rate mode                          : Constant
Frame rate                               : 23.976 fps
Color space                              : YUV
Chroma subsampling                       : 4:2:0
Bit depth                                : 8 bits
Scan type                                : Progressive
Bits/(Pixel*Frame)                       : 0.349
Stream size                              : 505 MiB (98%)
Language                                 : English
Encoded date                             : UTC 2016-05-24 21:51:27
Tagged date                              : UTC 2016-05-24 21:51:46
Color range                              : Limited
Color primaries                          : BT.709
Transfer characteristics                 : BT.709
Matrix coefficients                      : BT.709

Audio
ID                                       : 1
Format                                   : AAC
Format/Info                              : Advanced Audio Codec
Format profile                           : LC
Codec ID                                 : 40
Duration                                 : 4mn 4s
Source duration                          : 4mn 4s
Bit rate mode                            : Constant
Bit rate                                 : 320 Kbps
Channel(s)                               : 2 channels
Channel positions                        : Front: L R
Sampling rate                            : 48.0 KHz
Compression mode                         : Lossy
Stream size                              : 8.95 MiB (2%)
Source stream size                       : 8.95 MiB (2%)
Language                                 : English
Encoded date                             : UTC 2016-05-24 21:51:27
Tagged date                              : UTC 2016-05-24 21:51:46

Download
[HIDE-REPLY]MEGA[/HIDE-REPLY]
 

Matthew Quentin Morris

New Member
Registered
Dec 1, 2017
2
0
1
22
Nicki Minaj - Right Thru Me (Master-1080p)



Genres: Hip-Hop/Rap, R&B
Released: Oct 03, 2010​

Code:
Format                                   : MPEG-4
Format profile                           : QuickTime
Codec ID                                 : qt 
File size                                : 514 MiB
Duration                                 : 4mn 4s
Overall bit rate mode                    : Variable
Overall bit rate                         : 17.7 Mbps
Encoded date                             : UTC 2016-05-24 21:43:08
Tagged date                              : UTC 2016-05-24 21:51:46
Writing library                          : Apple QuickTime

Video
ID                                       : 2
Format                                   : AVC
Format/Info                              : Advanced Video Codec
Format profile                           : Main@L5.1
Format settings, CABAC                   : No
Format settings, ReFrames                : 2 frames
Format settings, GOP                     : M=2, N=48
Codec ID                                 : avc1
Codec ID/Info                            : Advanced Video Coding
Duration                                 : 4mn 4s
Duration_FirstFrame                      : -33ms
Duration_LastFrame                       : -11ms
Bit rate mode                            : Variable
Bit rate                                 : 17.4 Mbps
Maximum bit rate                         : 20.5 Mbps
Width                                    : 1 920 pixels
Clean aperture width                     : 1 888 pixels
Height                                   : 1 080 pixels
Clean aperture height                    : 1 062 pixels
Display aspect ratio                     : 16:9
Clean aperture display aspect ratio      : 16:9
Frame rate mode                          : Constant
Frame rate                               : 23.976 fps
Color space                              : YUV
Chroma subsampling                       : 4:2:0
Bit depth                                : 8 bits
Scan type                                : Progressive
Bits/(Pixel*Frame)                       : 0.349
Stream size                              : 505 MiB (98%)
Language                                 : English
Encoded date                             : UTC 2016-05-24 21:51:27
Tagged date                              : UTC 2016-05-24 21:51:46
Color range                              : Limited
Color primaries                          : BT.709
Transfer characteristics                 : BT.709
Matrix coefficients                      : BT.709

Audio
ID                                       : 1
Format                                   : AAC
Format/Info                              : Advanced Audio Codec
Format profile                           : LC
Codec ID                                 : 40
Duration                                 : 4mn 4s
Source duration                          : 4mn 4s
Bit rate mode                            : Constant
Bit rate                                 : 320 Kbps
Channel(s)                               : 2 channels
Channel positions                        : Front: L R
Sampling rate                            : 48.0 KHz
Compression mode                         : Lossy
Stream size                              : 8.95 MiB (2%)
Source stream size                       : 8.95 MiB (2%)
Language                                 : English
Encoded date                             : UTC 2016-05-24 21:51:27
Tagged date                              : UTC 2016-05-24 21:51:46

Download
***Hidden content cannot be quoted.***
Queen
 

Zainbhatti1738

New Member
Registered
Apr 21, 2018
1
0
1
30
Nicki Minaj - Right Thru Me (Master-1080p)



Genres: Hip-Hop/Rap, R&B
Released: Oct 03, 2010​

Code:
Format                                   : MPEG-4
Format profile                           : QuickTime
Codec ID                                 : qt 
File size                                : 514 MiB
Duration                                 : 4mn 4s
Overall bit rate mode                    : Variable
Overall bit rate                         : 17.7 Mbps
Encoded date                             : UTC 2016-05-24 21:43:08
Tagged date                              : UTC 2016-05-24 21:51:46
Writing library                          : Apple QuickTime

Video
ID                                       : 2
Format                                   : AVC
Format/Info                              : Advanced Video Codec
Format profile                           : Main@L5.1
Format settings, CABAC                   : No
Format settings, ReFrames                : 2 frames
Format settings, GOP                     : M=2, N=48
Codec ID                                 : avc1
Codec ID/Info                            : Advanced Video Coding
Duration                                 : 4mn 4s
Duration_FirstFrame                      : -33ms
Duration_LastFrame                       : -11ms
Bit rate mode                            : Variable
Bit rate                                 : 17.4 Mbps
Maximum bit rate                         : 20.5 Mbps
Width                                    : 1 920 pixels
Clean aperture width                     : 1 888 pixels
Height                                   : 1 080 pixels
Clean aperture height                    : 1 062 pixels
Display aspect ratio                     : 16:9
Clean aperture display aspect ratio      : 16:9
Frame rate mode                          : Constant
Frame rate                               : 23.976 fps
Color space                              : YUV
Chroma subsampling                       : 4:2:0
Bit depth                                : 8 bits
Scan type                                : Progressive
Bits/(Pixel*Frame)                       : 0.349
Stream size                              : 505 MiB (98%)
Language                                 : English
Encoded date                             : UTC 2016-05-24 21:51:27
Tagged date                              : UTC 2016-05-24 21:51:46
Color range                              : Limited
Color primaries                          : BT.709
Transfer characteristics                 : BT.709
Matrix coefficients                      : BT.709

Audio
ID                                       : 1
Format                                   : AAC
Format/Info                              : Advanced Audio Codec
Format profile                           : LC
Codec ID                                 : 40
Duration                                 : 4mn 4s
Source duration                          : 4mn 4s
Bit rate mode                            : Constant
Bit rate                                 : 320 Kbps
Channel(s)                               : 2 channels
Channel positions                        : Front: L R
Sampling rate                            : 48.0 KHz
Compression mode                         : Lossy
Stream size                              : 8.95 MiB (2%)
Source stream size                       : 8.95 MiB (2%)
Language                                 : English
Encoded date                             : UTC 2016-05-24 21:51:27
Tagged date                              : UTC 2016-05-24 21:51:46

Download
***Hidden content cannot be quoted.***
Thanks
 

kimpoy13

Member
Registered
Feb 4, 2019
114
2
18
27
Nicki Minaj - Right Thru Me (Master-1080p)



Genres: Hip-Hop/Rap, R&B
Released: Oct 03, 2010​

Code:
Format                                   : MPEG-4
Format profile                           : QuickTime
Codec ID                                 : qt 
File size                                : 514 MiB
Duration                                 : 4mn 4s
Overall bit rate mode                    : Variable
Overall bit rate                         : 17.7 Mbps
Encoded date                             : UTC 2016-05-24 21:43:08
Tagged date                              : UTC 2016-05-24 21:51:46
Writing library                          : Apple QuickTime

Video
ID                                       : 2
Format                                   : AVC
Format/Info                              : Advanced Video Codec
Format profile                           : Main@L5.1
Format settings, CABAC                   : No
Format settings, ReFrames                : 2 frames
Format settings, GOP                     : M=2, N=48
Codec ID                                 : avc1
Codec ID/Info                            : Advanced Video Coding
Duration                                 : 4mn 4s
Duration_FirstFrame                      : -33ms
Duration_LastFrame                       : -11ms
Bit rate mode                            : Variable
Bit rate                                 : 17.4 Mbps
Maximum bit rate                         : 20.5 Mbps
Width                                    : 1 920 pixels
Clean aperture width                     : 1 888 pixels
Height                                   : 1 080 pixels
Clean aperture height                    : 1 062 pixels
Display aspect ratio                     : 16:9
Clean aperture display aspect ratio      : 16:9
Frame rate mode                          : Constant
Frame rate                               : 23.976 fps
Color space                              : YUV
Chroma subsampling                       : 4:2:0
Bit depth                                : 8 bits
Scan type                                : Progressive
Bits/(Pixel*Frame)                       : 0.349
Stream size                              : 505 MiB (98%)
Language                                 : English
Encoded date                             : UTC 2016-05-24 21:51:27
Tagged date                              : UTC 2016-05-24 21:51:46
Color range                              : Limited
Color primaries                          : BT.709
Transfer characteristics                 : BT.709
Matrix coefficients                      : BT.709

Audio
ID                                       : 1
Format                                   : AAC
Format/Info                              : Advanced Audio Codec
Format profile                           : LC
Codec ID                                 : 40
Duration                                 : 4mn 4s
Source duration                          : 4mn 4s
Bit rate mode                            : Constant
Bit rate                                 : 320 Kbps
Channel(s)                               : 2 channels
Channel positions                        : Front: L R
Sampling rate                            : 48.0 KHz
Compression mode                         : Lossy
Stream size                              : 8.95 MiB (2%)
Source stream size                       : 8.95 MiB (2%)
Language                                 : English
Encoded date                             : UTC 2016-05-24 21:51:27
Tagged date                              : UTC 2016-05-24 21:51:46

Download
***Hidden content cannot be quoted.***[/QUOTE]
 

Buti

Member
Registered
Aug 16, 2019
104
0
16
32
Thanks[HIDE-REPLY][/HIDE-REPLY]
 

Minajfav

Member
Registered
Nov 8, 2019
50
1
8
20
Nicki Minaj - Right Thru Me (Master-1080p)



Genres: Hip-Hop/Rap, R&B
Released: Oct 03, 2010​

Code:
Format                                   : MPEG-4
Format profile                           : QuickTime
Codec ID                                 : qt 
File size                                : 514 MiB
Duration                                 : 4mn 4s
Overall bit rate mode                    : Variable
Overall bit rate                         : 17.7 Mbps
Encoded date                             : UTC 2016-05-24 21:43:08
Tagged date                              : UTC 2016-05-24 21:51:46
Writing library                          : Apple QuickTime

Video
ID                                       : 2
Format                                   : AVC
Format/Info                              : Advanced Video Codec
Format profile                           : Main@L5.1
Format settings, CABAC                   : No
Format settings, ReFrames                : 2 frames
Format settings, GOP                     : M=2, N=48
Codec ID                                 : avc1
Codec ID/Info                            : Advanced Video Coding
Duration                                 : 4mn 4s
Duration_FirstFrame                      : -33ms
Duration_LastFrame                       : -11ms
Bit rate mode                            : Variable
Bit rate                                 : 17.4 Mbps
Maximum bit rate                         : 20.5 Mbps
Width                                    : 1 920 pixels
Clean aperture width                     : 1 888 pixels
Height                                   : 1 080 pixels
Clean aperture height                    : 1 062 pixels
Display aspect ratio                     : 16:9
Clean aperture display aspect ratio      : 16:9
Frame rate mode                          : Constant
Frame rate                               : 23.976 fps
Color space                              : YUV
Chroma subsampling                       : 4:2:0
Bit depth                                : 8 bits
Scan type                                : Progressive
Bits/(Pixel*Frame)                       : 0.349
Stream size                              : 505 MiB (98%)
Language                                 : English
Encoded date                             : UTC 2016-05-24 21:51:27
Tagged date                              : UTC 2016-05-24 21:51:46
Color range                              : Limited
Color primaries                          : BT.709
Transfer characteristics                 : BT.709
Matrix coefficients                      : BT.709

Audio
ID                                       : 1
Format                                   : AAC
Format/Info                              : Advanced Audio Codec
Format profile                           : LC
Codec ID                                 : 40
Duration                                 : 4mn 4s
Source duration                          : 4mn 4s
Bit rate mode                            : Constant
Bit rate                                 : 320 Kbps
Channel(s)                               : 2 channels
Channel positions                        : Front: L R
Sampling rate                            : 48.0 KHz
Compression mode                         : Lossy
Stream size                              : 8.95 MiB (2%)
Source stream size                       : 8.95 MiB (2%)
Language                                 : English
Encoded date                             : UTC 2016-05-24 21:51:27
Tagged date                              : UTC 2016-05-24 21:51:46

Download
***Hidden content cannot be quoted.***
Thanks
 

babestv

New Member
Registered
May 2, 2020
27
0
1
27
Nicki Minaj - Right Thru Me (Master-1080p)



Genres: Hip-Hop/Rap, R&B
Released: Oct 03, 2010​

Code:
Format                                   : MPEG-4
Format profile                           : QuickTime
Codec ID                                 : qt 
File size                                : 514 MiB
Duration                                 : 4mn 4s
Overall bit rate mode                    : Variable
Overall bit rate                         : 17.7 Mbps
Encoded date                             : UTC 2016-05-24 21:43:08
Tagged date                              : UTC 2016-05-24 21:51:46
Writing library                          : Apple QuickTime

Video
ID                                       : 2
Format                                   : AVC
Format/Info                              : Advanced Video Codec
Format profile                           : Main@L5.1
Format settings, CABAC                   : No
Format settings, ReFrames                : 2 frames
Format settings, GOP                     : M=2, N=48
Codec ID                                 : avc1
Codec ID/Info                            : Advanced Video Coding
Duration                                 : 4mn 4s
Duration_FirstFrame                      : -33ms
Duration_LastFrame                       : -11ms
Bit rate mode                            : Variable
Bit rate                                 : 17.4 Mbps
Maximum bit rate                         : 20.5 Mbps
Width                                    : 1 920 pixels
Clean aperture width                     : 1 888 pixels
Height                                   : 1 080 pixels
Clean aperture height                    : 1 062 pixels
Display aspect ratio                     : 16:9
Clean aperture display aspect ratio      : 16:9
Frame rate mode                          : Constant
Frame rate                               : 23.976 fps
Color space                              : YUV
Chroma subsampling                       : 4:2:0
Bit depth                                : 8 bits
Scan type                                : Progressive
Bits/(Pixel*Frame)                       : 0.349
Stream size                              : 505 MiB (98%)
Language                                 : English
Encoded date                             : UTC 2016-05-24 21:51:27
Tagged date                              : UTC 2016-05-24 21:51:46
Color range                              : Limited
Color primaries                          : BT.709
Transfer characteristics                 : BT.709
Matrix coefficients                      : BT.709

Audio
ID                                       : 1
Format                                   : AAC
Format/Info                              : Advanced Audio Codec
Format profile                           : LC
Codec ID                                 : 40
Duration                                 : 4mn 4s
Source duration                          : 4mn 4s
Bit rate mode                            : Constant
Bit rate                                 : 320 Kbps
Channel(s)                               : 2 channels
Channel positions                        : Front: L R
Sampling rate                            : 48.0 KHz
Compression mode                         : Lossy
Stream size                              : 8.95 MiB (2%)
Source stream size                       : 8.95 MiB (2%)
Language                                 : English
Encoded date                             : UTC 2016-05-24 21:51:27
Tagged date                              : UTC 2016-05-24 21:51:46

Download
***Hidden content cannot be quoted.***
super