FEED Nicki Minaj - Super Bass (The Victoria's Secret Fashion Show 2011) [FEED-1080i-HDTV]-CtrlH

NCURBAN

Well-Known Member
Administrative
May 25, 2016
3,250
2,133
113
Nicki Minaj - Super Bass (The Victoria's Secret Fashion Show 2011) [FEED-1080i-HDTV]-CtrlH


Code:
Format : MPEG-TS
File size : 1.17 GiB
Duration : 4mn 33s
Overall bit rate mode : Variable
Overall bit rate : 36.6 Mbps
Movie name : GRMN1130

Video
ID : 65 (0x41)
Menu ID : 1 (0x1)
Format : MPEG Video
Format version : Version 2
Format profile : 4:2:2@High
Format settings, BVOP : Yes
Format settings, Matrix : Custom
Format settings, GOP : M=3, N=15
Format settings, picture structure : Frame
Codec ID : 2
Duration : 4mn 33s
Bit rate mode : Variable
Bit rate : 34.6 Mbps
Maximum bit rate : 35.5 Mbps
Width : 1 920 pixels
Height : 1 080 pixels
Display aspect ratio : 16:9
Frame rate : 29.970 fps
Standard : Component
Color space : YUV
Chroma subsampling : 4:2:2
Bit depth : 8 bits
Scan type : Interlaced
Scan order : Top Field First
Compression mode : Lossy
Bits/(Pixel*Frame) : 0.556
Time code of first frame : 00:00:00;00
Time code source : Group of pictures header
GOP, Open/Closed : Open
GOP, Open/Closed of first frame : Closed
Stream size : 1.10 GiB (94%)
Color primaries : BT.709
Transfer characteristics : BT.709
Matrix coefficients : BT.709

Audio
ID : 68 (0x44)
Menu ID : 1 (0x1)
Format : MPEG Audio
Format version : Version 1
Format profile : Layer 2
Mode : Joint stereo
Codec ID : 3
Duration : 4mn 33s
Bit rate mode : Constant
Bit rate : 256 Kbps
Channel(s) : 2 channels
Sampling rate : 48.0 KHz
Compression mode : Lossy
Delay relative to video : 2ms
Stream size : 8.34 MiB (1%)
Language : English

Text #1
ID : 65 (0x41)-CC1
Menu ID : 1 (0x1)
Format : EIA-608
Muxing mode : A/53 / DTVCC Transport
Muxing mode, more info : Muxed in Video #1
Duration : 4mn 33s
Bit rate mode : Constant
Stream size : 0.00 Byte (0%)

Text #2
ID : 65 (0x41)-1
Menu ID : 1 (0x1)
Format : EIA-708
Muxing mode : A/53 / DTVCC Transport
Muxing mode, more info : Muxed in Video #1
Duration : 4mn 33s
Bit rate mode : Constant
Stream size : 0.00 Byte (0%)

Download
[HIDE-REPLY]MEGA[/HIDE-REPLY]
 

sxd fcggvhbjnm

Member
Registered
Feb 3, 2019
47
0
6
20
Nicki Minaj - Super Bass (The Victoria's Secret Fashion Show 2011) [FEED-1080i-HDTV]-CtrlH


Code:
Format : MPEG-TS
File size : 1.17 GiB
Duration : 4mn 33s
Overall bit rate mode : Variable
Overall bit rate : 36.6 Mbps
Movie name : GRMN1130

Video
ID : 65 (0x41)
Menu ID : 1 (0x1)
Format : MPEG Video
Format version : Version 2
Format profile : 4:2:2@High
Format settings, BVOP : Yes
Format settings, Matrix : Custom
Format settings, GOP : M=3, N=15
Format settings, picture structure : Frame
Codec ID : 2
Duration : 4mn 33s
Bit rate mode : Variable
Bit rate : 34.6 Mbps
Maximum bit rate : 35.5 Mbps
Width : 1 920 pixels
Height : 1 080 pixels
Display aspect ratio : 16:9
Frame rate : 29.970 fps
Standard : Component
Color space : YUV
Chroma subsampling : 4:2:2
Bit depth : 8 bits
Scan type : Interlaced
Scan order : Top Field First
Compression mode : Lossy
Bits/(Pixel*Frame) : 0.556
Time code of first frame : 00:00:00;00
Time code source : Group of pictures header
GOP, Open/Closed : Open
GOP, Open/Closed of first frame : Closed
Stream size : 1.10 GiB (94%)
Color primaries : BT.709
Transfer characteristics : BT.709
Matrix coefficients : BT.709

Audio
ID : 68 (0x44)
Menu ID : 1 (0x1)
Format : MPEG Audio
Format version : Version 1
Format profile : Layer 2
Mode : Joint stereo
Codec ID : 3
Duration : 4mn 33s
Bit rate mode : Constant
Bit rate : 256 Kbps
Channel(s) : 2 channels
Sampling rate : 48.0 KHz
Compression mode : Lossy
Delay relative to video : 2ms
Stream size : 8.34 MiB (1%)
Language : English

Text #1
ID : 65 (0x41)-CC1
Menu ID : 1 (0x1)
Format : EIA-608
Muxing mode : A/53 / DTVCC Transport
Muxing mode, more info : Muxed in Video #1
Duration : 4mn 33s
Bit rate mode : Constant
Stream size : 0.00 Byte (0%)

Text #2
ID : 65 (0x41)-1
Menu ID : 1 (0x1)
Format : EIA-708
Muxing mode : A/53 / DTVCC Transport
Muxing mode, more info : Muxed in Video #1
Duration : 4mn 33s
Bit rate mode : Constant
Stream size : 0.00 Byte (0%)

Download
***Hidden content cannot be quoted.***
 

gff gf

Member
Registered
Jun 23, 2019
62
0
6
21
Nicki Minaj - Super Bass (The Victoria's Secret Fashion Show 2011) [FEED-1080i-HDTV]-CtrlH


Code:
Format : MPEG-TS
File size : 1.17 GiB
Duration : 4mn 33s
Overall bit rate mode : Variable
Overall bit rate : 36.6 Mbps
Movie name : GRMN1130

Video
ID : 65 (0x41)
Menu ID : 1 (0x1)
Format : MPEG Video
Format version : Version 2
Format profile : 4:2:2@High
Format settings, BVOP : Yes
Format settings, Matrix : Custom
Format settings, GOP : M=3, N=15
Format settings, picture structure : Frame
Codec ID : 2
Duration : 4mn 33s
Bit rate mode : Variable
Bit rate : 34.6 Mbps
Maximum bit rate : 35.5 Mbps
Width : 1 920 pixels
Height : 1 080 pixels
Display aspect ratio : 16:9
Frame rate : 29.970 fps
Standard : Component
Color space : YUV
Chroma subsampling : 4:2:2
Bit depth : 8 bits
Scan type : Interlaced
Scan order : Top Field First
Compression mode : Lossy
Bits/(Pixel*Frame) : 0.556
Time code of first frame : 00:00:00;00
Time code source : Group of pictures header
GOP, Open/Closed : Open
GOP, Open/Closed of first frame : Closed
Stream size : 1.10 GiB (94%)
Color primaries : BT.709
Transfer characteristics : BT.709
Matrix coefficients : BT.709

Audio
ID : 68 (0x44)
Menu ID : 1 (0x1)
Format : MPEG Audio
Format version : Version 1
Format profile : Layer 2
Mode : Joint stereo
Codec ID : 3
Duration : 4mn 33s
Bit rate mode : Constant
Bit rate : 256 Kbps
Channel(s) : 2 channels
Sampling rate : 48.0 KHz
Compression mode : Lossy
Delay relative to video : 2ms
Stream size : 8.34 MiB (1%)
Language : English

Text #1
ID : 65 (0x41)-CC1
Menu ID : 1 (0x1)
Format : EIA-608
Muxing mode : A/53 / DTVCC Transport
Muxing mode, more info : Muxed in Video #1
Duration : 4mn 33s
Bit rate mode : Constant
Stream size : 0.00 Byte (0%)

Text #2
ID : 65 (0x41)-1
Menu ID : 1 (0x1)
Format : EIA-708
Muxing mode : A/53 / DTVCC Transport
Muxing mode, more info : Muxed in Video #1
Duration : 4mn 33s
Bit rate mode : Constant
Stream size : 0.00 Byte (0%)

Download
***Hidden content cannot be quoted.***
 

Brian Manson

New Member
Registered
Oct 10, 2019
10
0
1
16
Nicki Minaj - Super Bass (The Victoria's Secret Fashion Show 2011) [FEED-1080i-HDTV]-CtrlH


Code:
Format : MPEG-TS
File size : 1.17 GiB
Duration : 4mn 33s
Overall bit rate mode : Variable
Overall bit rate : 36.6 Mbps
Movie name : GRMN1130

Video
ID : 65 (0x41)
Menu ID : 1 (0x1)
Format : MPEG Video
Format version : Version 2
Format profile : 4:2:2@High
Format settings, BVOP : Yes
Format settings, Matrix : Custom
Format settings, GOP : M=3, N=15
Format settings, picture structure : Frame
Codec ID : 2
Duration : 4mn 33s
Bit rate mode : Variable
Bit rate : 34.6 Mbps
Maximum bit rate : 35.5 Mbps
Width : 1 920 pixels
Height : 1 080 pixels
Display aspect ratio : 16:9
Frame rate : 29.970 fps
Standard : Component
Color space : YUV
Chroma subsampling : 4:2:2
Bit depth : 8 bits
Scan type : Interlaced
Scan order : Top Field First
Compression mode : Lossy
Bits/(Pixel*Frame) : 0.556
Time code of first frame : 00:00:00;00
Time code source : Group of pictures header
GOP, Open/Closed : Open
GOP, Open/Closed of first frame : Closed
Stream size : 1.10 GiB (94%)
Color primaries : BT.709
Transfer characteristics : BT.709
Matrix coefficients : BT.709

Audio
ID : 68 (0x44)
Menu ID : 1 (0x1)
Format : MPEG Audio
Format version : Version 1
Format profile : Layer 2
Mode : Joint stereo
Codec ID : 3
Duration : 4mn 33s
Bit rate mode : Constant
Bit rate : 256 Kbps
Channel(s) : 2 channels
Sampling rate : 48.0 KHz
Compression mode : Lossy
Delay relative to video : 2ms
Stream size : 8.34 MiB (1%)
Language : English

Text #1
ID : 65 (0x41)-CC1
Menu ID : 1 (0x1)
Format : EIA-608
Muxing mode : A/53 / DTVCC Transport
Muxing mode, more info : Muxed in Video #1
Duration : 4mn 33s
Bit rate mode : Constant
Stream size : 0.00 Byte (0%)

Text #2
ID : 65 (0x41)-1
Menu ID : 1 (0x1)
Format : EIA-708
Muxing mode : A/53 / DTVCC Transport
Muxing mode, more info : Muxed in Video #1
Duration : 4mn 33s
Bit rate mode : Constant
Stream size : 0.00 Byte (0%)

Download
***Hidden content cannot be quoted.***
thANKS
 

Minajfav

Member
Registered
Nov 8, 2019
46
0
6
20
Nicki Minaj - Super Bass (The Victoria's Secret Fashion Show 2011) [FEED-1080i-HDTV]-CtrlH


Code:
Format : MPEG-TS
File size : 1.17 GiB
Duration : 4mn 33s
Overall bit rate mode : Variable
Overall bit rate : 36.6 Mbps
Movie name : GRMN1130

Video
ID : 65 (0x41)
Menu ID : 1 (0x1)
Format : MPEG Video
Format version : Version 2
Format profile : 4:2:2@High
Format settings, BVOP : Yes
Format settings, Matrix : Custom
Format settings, GOP : M=3, N=15
Format settings, picture structure : Frame
Codec ID : 2
Duration : 4mn 33s
Bit rate mode : Variable
Bit rate : 34.6 Mbps
Maximum bit rate : 35.5 Mbps
Width : 1 920 pixels
Height : 1 080 pixels
Display aspect ratio : 16:9
Frame rate : 29.970 fps
Standard : Component
Color space : YUV
Chroma subsampling : 4:2:2
Bit depth : 8 bits
Scan type : Interlaced
Scan order : Top Field First
Compression mode : Lossy
Bits/(Pixel*Frame) : 0.556
Time code of first frame : 00:00:00;00
Time code source : Group of pictures header
GOP, Open/Closed : Open
GOP, Open/Closed of first frame : Closed
Stream size : 1.10 GiB (94%)
Color primaries : BT.709
Transfer characteristics : BT.709
Matrix coefficients : BT.709

Audio
ID : 68 (0x44)
Menu ID : 1 (0x1)
Format : MPEG Audio
Format version : Version 1
Format profile : Layer 2
Mode : Joint stereo
Codec ID : 3
Duration : 4mn 33s
Bit rate mode : Constant
Bit rate : 256 Kbps
Channel(s) : 2 channels
Sampling rate : 48.0 KHz
Compression mode : Lossy
Delay relative to video : 2ms
Stream size : 8.34 MiB (1%)
Language : English

Text #1
ID : 65 (0x41)-CC1
Menu ID : 1 (0x1)
Format : EIA-608
Muxing mode : A/53 / DTVCC Transport
Muxing mode, more info : Muxed in Video #1
Duration : 4mn 33s
Bit rate mode : Constant
Stream size : 0.00 Byte (0%)

Text #2
ID : 65 (0x41)-1
Menu ID : 1 (0x1)
Format : EIA-708
Muxing mode : A/53 / DTVCC Transport
Muxing mode, more info : Muxed in Video #1
Duration : 4mn 33s
Bit rate mode : Constant
Stream size : 0.00 Byte (0%)

Download
***Hidden content cannot be quoted.***
Thanks