HDTV Noel Gallagher - If I Had A Gun (Late Show With David Letterman 2011) [HDTV-1080i]

NCURBAN

Well-Known Member
Administrative
May 25, 2016
3,347
3,635
113
Noel Gallagher - If I Had A Gun (Late Show With David Letterman 2011) [HDTV-1080i]


Geners: Alternative
At: Late Show With David Letterman
Date: 2011
Code:
Format                                   : MPEG-TS
File size                                : 559 MiB
Duration                                 : 4 min 22 s
Overall bit rate mode                    : Variable
Overall bit rate                         : 17.8 Mb/s
Maximum Overall bit rate                 : 35.5 Mb/s
Movie name                               : LETRMN-3578-009

Video
ID                                       : 4113 (0x1011)
Menu ID                                  : 1 (0x1)
Format                                   : MPEG Video
Format version                           : Version 2
Format profile                           : Main@High
Format settings, BVOP                    : Yes
Format settings, Matrix                  : Custom
Format settings, GOP                     : M=3, N=15
Format settings, picture structure       : Frame
Codec ID                                 : 2
Duration                                 : 4 min 22 s
Bit rate mode                            : Variable
Bit rate                                 : 16.6 Mb/s
Maximum bit rate                         : 17.1 Mb/s
Width                                    : 1 920 pixels
Height                                   : 1 080 pixels
Display aspect ratio                     : 16:9
Frame rate                               : 29.970 (30000/1001) FPS
Standard                                 : Component
Color space                              : YUV
Chroma subsampling                       : 4:2:0
Bit depth                                : 8 bits
Scan type                                : Interlaced
Scan order                               : Top Field First
Compression mode                         : Lossy
Bits/(Pixel*Frame)                       : 0.267
Time code of first frame                 : 00:38:40;09
Time code source                         : Group of pictures header
GOP, Open/Closed                         : Open
Stream size                              : 519 MiB (93%)
Color primaries                          : BT.709
Transfer characteristics                 : BT.709
Matrix coefficients                      : BT.709

Audio
ID                                       : 4352 (0x1100)
Menu ID                                  : 1 (0x1)
Format                                   : AC-3
Format/Info                              : Audio Coding 3
Mode extension                           : CM (complete main)
Format settings, Endianness              : Big
Codec ID                                 : 129
Duration                                 : 4 min 22 s
Bit rate mode                            : Constant
Bit rate                                 : 384 kb/s
Channel(s)                               : 6 channels
Channel positions                        : Front: L C R, Side: L R, LFE
Sampling rate                            : 48.0 kHz
Frame rate                               : 31.250 FPS (1536 spf)
Bit depth                                : 16 bits
Compression mode                         : Lossy
Delay relative to video                  : -113 ms
Stream size                              : 12.0 MiB (2%)
Language                                 : English
Download
[HIDE-REPLY]MEGA[/HIDE-REPLY]