HDTV Olly Murs - Grow Up (X Factor UK 2016) [FEED-1080i]-HDMania

NCURBAN

Well-Known Member
Administrative
May 25, 2016
3,347
3,630
113
Olly Murs - Grow Up (X Factor UK 2016) [FEED-1080i]-HDMania



Gener: Pop
At: X Factor UK
Date: 13 Nov, 2016

Code:
Format                                   : MPEG-TS
File size                                : 951 MiB
Duration                                 : 4 min 25 s
Overall bit rate mode                    : Variable
Overall bit rate                         : 30.0 Mb/s

Video
ID                                       : 33 (0x21)
Menu ID                                  : 1 (0x1)
Format                                   : AVC
Format/Info                              : Advanced Video Codec
Format profile                           : High@L4.1
Format settings, CABAC                   : Yes
Format settings, ReFrames                : 4 frames
Codec ID                                 : 27
Duration                                 : 4 min 24 s
Bit rate                                 : 28.2 Mb/s
Width                                    : 1 920 pixels
Height                                   : 1 080 pixels
Display aspect ratio                     : 16:9
Frame rate                               : 25.000 FPS
Color space                              : YUV
Chroma subsampling                       : 4:2:0
Bit depth                                : 8 bits
Scan type                                : Interlaced
Scan type, store method                  : Separated fields
Scan order                               : Top Field First
Bits/(Pixel*Frame)                       : 0.543
Stream size                              : 889 MiB (93%)
Color range                              : Limited
Color primaries                          : BT.709
Transfer characteristics                 : BT.709
Matrix coefficients                      : BT.709

Audio #1
ID                                       : 34 (0x22)
Menu ID                                  : 1 (0x1)
Format                                   : MPEG Audio
Format version                           : Version 1
Format profile                           : Layer 2
Codec ID                                 : 3
Duration                                 : 4 min 25 s
Bit rate mode                            : Constant
Bit rate                                 : 192 kb/s
Channel(s)                               : 2 channels
Sampling rate                            : 48.0 kHz
Compression mode                         : Lossy
Delay relative to video                  : 48 ms
Stream size                              : 6.08 MiB (1%)
Language                                 : English

Download
You must reply before you can see the hidden data contained here.