HDTV OneRepublic - Apologize & Counting Stars (Tmall Double 11 Crazy Night 2016) [HDTV-1080i]

NCURBAN

Well-Known Member
Administrative
May 25, 2016
3,347
3,634
113
OneRepublic - Apologize & Counting Stars (Tmall Double 11 Crazy Night 2016) [HDTV-1080i]



Gener: Pop
At: Tmall Double 11 Crazy Night
Date: 10 Nov, 2016

Code:
Format                                   : MPEG-TS
File size                                : 521 MiB
Duration                                 : 4 min 17 s
Overall bit rate mode                    : Variable
Overall bit rate                         : 17.0 Mb/s

Video
ID                                       : 2576 (0xA10)
Menu ID                                  : 3301 (0xCE5)
Format                                   : MPEG Video
Format version                           : Version 2
Format profile                           : Main@High
Format settings, BVOP                    : Yes
Format settings, Matrix                  : Custom
Format settings, GOP                     : M=3, N=15
Format settings, picture structure       : Frame
Codec ID                                 : 2
Duration                                 : 4 min 16 s
Bit rate mode                            : Constant
Bit rate                                 : 15.5 Mb/s
Maximum bit rate                         : 16.0 Mb/s
Width                                    : 1 920 pixels
Height                                   : 1 080 pixels
Display aspect ratio                     : 16:9
Frame rate                               : 25.000 FPS
Color space                              : YUV
Chroma subsampling                       : 4:2:0
Bit depth                                : 8 bits
Scan type                                : Interlaced
Scan order                               : Top Field First
Compression mode                         : Lossy
Bits/(Pixel*Frame)                       : 0.300
Time code of first frame                 : 00:39:29:16
Time code source                         : Group of pictures header
GOP, Open/Closed                         : Open
Stream size                              : 476 MiB (91%)

Audio #1
ID                                       : 2579 (0xA13)
Menu ID                                  : 3301 (0xCE5)
Format                                   : AC-3
Format/Info                              : Audio Coding 3
Mode extension                           : CM (complete main)
Format settings, Endianness              : Big
Codec ID                                 : 6
Duration                                 : 4 min 17 s
Bit rate mode                            : Constant
Bit rate                                 : 448 kb/s
Channel(s)                               : 2 channels
Channel positions                        : Front: L R
Sampling rate                            : 48.0 kHz
Frame rate                               : 31.250 FPS (1536 spf)
Bit depth                                : 16 bits
Compression mode                         : Lossy
Delay relative to video                  : -474 ms
Stream size                              : 13.7 MiB (3%)

Download
You must reply before you can see the hidden data contained here.
 
  • Like
Reactions: Darin