HDTV P!nk - Storytellers 2012 (HDTV-1080i)-HDMania

NCURBAN

Well-Known Member
Administrative
May 25, 2016
3,347
3,853
113
P!nk - Storytellers 2012 (HDTV-1080i)-HDMania


Setlist:
  1. So What
  2. True Love (with Lily Allen)
  3. Sober
  4. Who Knew (Acoustic)
  5. Dear Mr. President
  6. How Come You're Not Here
  7. Just Give Me a Reason (with Nate Ruess)
  8. Family Portrait
  9. Mean (with Butch Walker)
  10. Blow Me (One Last Kiss)
Code:
Format                                   : MPEG-TS
File size                                : 2.53 GiB
Duration                                 : 42mn 3s
Overall bit rate mode                    : Variable
Overall bit rate                         : 8 614 Kbps

Video
ID                                       : 5408 (0x1520)
Menu ID                                  : 1 (0x1)
Format                                   : AVC
Format/Info                              : Advanced Video Codec
Format profile                           : Main@L4
Format settings, CABAC                   : Yes
Format settings, ReFrames                : 2 frames
Codec ID                                 : 27
Duration                                 : 42mn 3s
Bit rate                                 : 7 801 Kbps
Width                                    : 1 920 pixels
Height                                   : 1 080 pixels
Display aspect ratio                     : 16:9
Frame rate                               : 29.970 fps
Color space                              : YUV
Chroma subsampling                       : 4:2:0
Bit depth                                : 8 bits
Scan type                                : MBAFF
Scan order                               : Top Field First
Bits/(Pixel*Frame)                       : 0.126
Stream size                              : 2.29 GiB (91%)
Color range                              : Limited
Color primaries                          : BT.709
Transfer characteristics                 : BT.709
Matrix coefficients                      : BT.709

Audio
ID                                       : 5409 (0x1521)
Menu ID                                  : 1 (0x1)
Format                                   : AC-3
Format/Info                              : Audio Coding 3
Mode extension                           : CM (complete main)
Format settings, Endianness              : Big
Codec ID                                 : 129
Duration                                 : 42mn 3s
Bit rate mode                            : Constant
Bit rate                                 : 384 Kbps
Channel(s)                               : 6 channels
Channel positions                        : Front: L C R, Side: L R, LFE
Sampling rate                            : 48.0 KHz
Compression mode                         : Lossy
Stream size                              : 116 MiB (4%)
Language                                 : English

Download
[HIDE-REPLY]MEGA[/HIDE-REPLY]