HDTV Pharrell Williams - Runnin' (Ellen DeGeneres 2017) [HDTV-1080i]-HDMania

NCURBAN

Well-Known Member
Administrative
May 25, 2016
3,347
3,620
113
Pharrell Williams - Runnin' (Ellen DeGeneres 2017) [HDTV-1080i]-HDMania


Gener: Pop
At: Ellen DeGeneres
Date: 05 Jan, 2017
Code:
Format                                   : MPEG-TS
File size                                : 406 MiB
Duration                                 : 3 min 54 s
Overall bit rate mode                    : Variable
Overall bit rate                         : 14.5 Mb/s
Maximum Overall bit rate                 : 35.5 Mb/s
Movie name                               : Ellen DeGeneres Show, The
Law rating                               : TV-PG

Video
ID                                       : 4113 (0x1011)
Menu ID                                  : 1 (0x1)
Format                                   : MPEG Video
Format version                           : Version 2
Format profile                           : Main@High
Format settings, BVOP                    : Yes
Format settings, Matrix                  : Custom
Format settings, GOP                     : Variable
Format settings, picture structure       : Frame
Codec ID                                 : 2
Duration                                 : 3 min 54 s
Bit rate mode                            : Variable
Bit rate                                 : 13.4 Mb/s
Maximum bit rate                         : 80.0 Mb/s
Width                                    : 1 920 pixels
Height                                   : 1 080 pixels
Display aspect ratio                     : 16:9
Active Format Description                : Full frame 16:9 image
Frame rate                               : 29.970 (30000/1001) FPS
Color space                              : YUV
Chroma subsampling                       : 4:2:0
Bit depth                                : 8 bits
Scan type                                : Interlaced
Scan order                               : Top Field First
Compression mode                         : Lossy
Bits/(Pixel*Frame)                       : 0.216
Stream size                              : 375 MiB (92%)
Color primaries                          : BT.709
Transfer characteristics                 : BT.709
Matrix coefficients                      : BT.709

Audio
ID                                       : 4352 (0x1100)
Menu ID                                  : 1 (0x1)
Format                                   : AC-3
Format/Info                              : Audio Coding 3
Mode extension                           : CM (complete main)
Format settings, Endianness              : Big
Codec ID                                 : 129
Duration                                 : 3 min 53 s
Bit rate mode                            : Constant
Bit rate                                 : 384 kb/s
Channel(s)                               : 2 channels
Channel positions                        : Front: L R
Sampling rate                            : 48.0 kHz
Frame rate                               : 31.250 FPS (1536 spf)
Bit depth                                : 16 bits
Compression mode                         : Lossy
Stream size                              : 10.7 MiB (3%)
Download
You must reply before you can see the hidden data contained here.