HDTV Pitbull Feat. REO Speedwagon - Messin' Around (Live on Greatest Hits 2016) [HDTV-720p]

NCURBAN

Well-Known Member
Administrative
May 25, 2016
3,347
3,874
113
Pitbull Feat. REO Speedwagon - Messin' Around (Live on Greatest Hits 2016) [HDTV-720p]


Code:
Format                                   : MPEG-TS
File size                                : 357 MiB
Duration                                 : 3mn 46s
Overall bit rate mode                    : Variable
Overall bit rate                         : 13.2 Mbps
Maximum Overall bit rate                 : 35.5 Mbps
Movie name                               : GREATEST HITS
Law rating                               : TV-PG

Video
ID                                       : 4113 (0x1011)
Menu ID                                  : 1 (0x1)
Format                                   : MPEG Video
Format version                           : Version 2
Format profile                           : Main@High
Format settings, BVOP                    : Yes
Format settings, Matrix                  : Default
Format settings, GOP                     : Variable
Codec ID                                 : 2
Duration                                 : 3mn 46s
Bit rate mode                            : Variable
Bit rate                                 : 12.2 Mbps
Maximum bit rate                         : 80.0 Mbps
Width                                    : 1 280 pixels
Height                                   : 720 pixels
Display aspect ratio                     : 16:9
Active Format Description                : Letterbox 16:9 image
Frame rate                               : 59.940 fps
Color space                              : YUV
Chroma subsampling                       : 4:2:0
Bit depth                                : 8 bits
Scan type                                : Progressive
Compression mode                         : Lossy
Bits/(Pixel*Frame)                       : 0.221
Stream size                              : 329 MiB (92%)
Color primaries                          : BT.709
Transfer characteristics                 : BT.709
Matrix coefficients                      : BT.709

Audio
ID                                       : 4352 (0x1100)
Menu ID                                  : 1 (0x1)
Format                                   : AC-3
Format/Info                              : Audio Coding 3
Mode extension                           : CM (complete main)
Format settings, Endianness              : Big
Codec ID                                 : 129
Duration                                 : 3mn 45s
Bit rate mode                            : Constant
Bit rate                                 : 384 Kbps
Channel(s)                               : 2 channels
Channel positions                        : Front: L R
Sampling rate                            : 48.0 KHz
Compression mode                         : Lossy
Delay relative to video                  : -33ms
Stream size                              : 10.3 MiB (3%)

Text #1
ID                                       : 4113 (0x1011)-CC1
Menu ID                                  : 1 (0x1)
Format                                   : EIA-608
Muxing mode                              : A/53 / DTVCC Transport
Muxing mode, more info                   : Muxed in Video #1
Duration                                 : 3mn 46s
Bit rate mode                            : Constant
Stream size                              : 0.00 Byte (0%)

Text #2
ID                                       : 4113 (0x1011)-CC3
Menu ID                                  : 1 (0x1)
Format                                   : EIA-608
Muxing mode                              : A/53 / DTVCC Transport
Muxing mode, more info                   : Muxed in Video #1
Duration                                 : 3mn 46s
Bit rate mode                            : Constant
Stream size                              : 0.00 Byte (0%)

Text #3
ID                                       : 4113 (0x1011)-1
Menu ID                                  : 1 (0x1)
Format                                   : EIA-708
Muxing mode                              : A/53 / DTVCC Transport
Muxing mode, more info                   : Muxed in Video #1
Duration                                 : 3mn 46s
Bit rate mode                            : Constant
Stream size                              : 0.00 Byte (0%)

Text #4
ID                                       : 4113 (0x1011)-2
Menu ID                                  : 1 (0x1)
Format                                   : EIA-708
Muxing mode                              : A/53 / DTVCC Transport
Muxing mode, more info                   : Muxed in Video #1
Duration                                 : 3mn 46s
Bit rate mode                            : Constant
Stream size                              : 0.00 Byte (0%)

Text #5
ID                                       : 4113 (0x1011)-3
Menu ID                                  : 1 (0x1)
Format                                   : EIA-708
Muxing mode                              : A/53 / DTVCC Transport
Muxing mode, more info                   : Muxed in Video #1
Duration                                 : 3mn 46s
Bit rate mode                            : Constant
Stream size                              : 0.00 Byte (0%)

Text #6
ID                                       : 4113 (0x1011)-4
Menu ID                                  : 1 (0x1)
Format                                   : EIA-708
Muxing mode                              : A/53 / DTVCC Transport
Muxing mode, more info                   : Muxed in Video #1
Duration                                 : 3mn 46s
Bit rate mode                            : Constant
Stream size                              : 0.00 Byte (0%)

Text #7
ID                                       : 4113 (0x1011)-5
Menu ID                                  : 1 (0x1)
Format                                   : EIA-708
Muxing mode                              : A/53 / DTVCC Transport
Muxing mode, more info                   : Muxed in Video #1
Duration                                 : 3mn 46s
Bit rate mode                            : Constant
Stream size                              : 0.00 Byte (0%)

Text #8
ID                                       : 4113 (0x1011)-6
Menu ID                                  : 1 (0x1)
Format                                   : EIA-708
Muxing mode                              : A/53 / DTVCC Transport
Muxing mode, more info                   : Muxed in Video #1
Duration                                 : 3mn 46s
Bit rate mode                            : Constant
Stream size                              : 0.00 Byte (0%)

Download
[HIDE-REPLY]MEGA[/HIDE-REPLY]