YouTube Pixie Lott - A Real Good Thing (featuring Shaggy) [YouTube 1080p]

NCURBAN

Well-Known Member
Administrative
May 25, 2016
3,347
3,885
113
Pixie Lott - A Real Good Thing (featuring Shaggy) [YouTube 1080p]



Genres: Pop
Released: Aug 16, 2016

Code:
Format                                   : MPEG-4
Format profile                           : Base Media
Codec ID                                 : isom
File size                                : 56.9 MiB
Duration                                 : 3mn 51s
Overall bit rate                         : 2 065 Kbps
Writing application                      : Lavf56.40.101

Video
ID                                       : 1
Format                                   : AVC
Format/Info                              : Advanced Video Codec
Format profile                           : Main@L3.1
Format settings, CABAC                   : Yes
Format settings, ReFrames                : 3 frames
Codec ID                                 : avc1
Codec ID/Info                            : Advanced Video Coding
Duration                                 : 3mn 51s
Duration_FirstFrame                      : -42ms
Bit rate                                 : 1 935 Kbps
Width                                    : 1 280 pixels
Height                                   : 720 pixels
Display aspect ratio                     : 16:9
Frame rate mode                          : Variable
Frame rate                               : 24.000 fps
Minimum frame rate                       : 24.000 fps
Maximum frame rate                       : 24.013 fps
Color space                              : YUV
Chroma subsampling                       : 4:2:0
Bit depth                                : 8 bits
Scan type                                : Progressive
Bits/(Pixel*Frame)                       : 0.087
Stream size                              : 53.3 MiB (94%)
Color range                              : Limited
Color primaries                          : BT.709
Transfer characteristics                 : BT.709
Matrix coefficients                      : BT.709

Audio
ID                                       : 2
Format                                   : AAC
Format/Info                              : Advanced Audio Codec
Format profile                           : LC
Codec ID                                 : 40
Duration                                 : 3mn 51s
Bit rate mode                            : Constant
Bit rate                                 : 126 Kbps
Channel(s)                               : 2 channels
Channel positions                        : Front: L R
Sampling rate                            : 44.1 KHz
Compression mode                         : Lossy
Stream size                              : 3.46 MiB (6%)

Download
You must reply before you can see the hidden data contained here.