HDTV Rihanna - BBC Radio 1 Big Weekend Hackney 2012 (HDTV-1080i)-dylwys

NCURBAN

Well-Known Member
Administrative
May 25, 2016
3,358
4,092
113
Rihanna - BBC Radio 1 Big Weekend Hackney 2012 (HDTV-1080i)-dylwys


Gener: Pop, R&B/Soul, Dance
Tour: BBC Radio 1 Big Weekend
At: Hackney Marsh, London, England
Date: June 24, 2012
Setlist:
  1. Only Girl (In the World)
  2. Disturbia
  3. S&M
  4. Cockiness (Love It)
  5. Birthday Cake
  6. What's My Name?
  7. Rude Boy
  8. Love the Way You Lie (Part II)
  9. Man Down
  10. Where Have You Been
  11. Wait Your Turn
  12. Hard
  13. Don't Stop the Music
  14. With Jay-Z
  15. Run This Town (JAY Z cover) [With Jay-Z]
  16. Talk That Talk (With Jay-Z)
  17. Umbrella (With Jay-Z)
  18. We Found Love
Code:
Format                                   : MPEG-TS
File size                                : 5.09 GiB
Duration                                 : 1 h 16 min
Overall bit rate mode                    : Variable
Overall bit rate                         : 9 552 kb/s

Video
ID                                       : 5500 (0x157C)
Menu ID                                  : 6940 (0x1B1C)
Format                                   : AVC
Format/Info                              : Advanced Video Codec
Format profile                           : High@L4
Format settings, CABAC                   : Yes
Format settings, ReFrames                : 4 frames
Format settings, GOP                     : M=8, N=24
Codec ID                                 : 27
Duration                                 : 1 h 16 min
Bit rate                                 : 8 628 kb/s
Width                                    : 1 920 pixels
Height                                   : 1 080 pixels
Display aspect ratio                     : 16:9
Frame rate                               : 25.000 FPS
Color space                              : YUV
Chroma subsampling                       : 4:2:0
Bit depth                                : 8 bits
Scan type                                : MBAFF
Scan type, store method                  : Interleaved fields
Scan order                               : Top Field First
Bits/(Pixel*Frame)                       : 0.166
Stream size                              : 4.60 GiB (90%)
Color range                              : Limited
Color primaries                          : BT.709
Transfer characteristics                 : BT.709
Matrix coefficients                      : BT.709

Audio #1
ID                                       : 5501 (0x157D)
Menu ID                                  : 6940 (0x1B1C)
Format                                   : AC-3
Format/Info                              : Audio Coding 3
Mode extension                           : CM (complete main)
Format settings, Endianness              : Big
Codec ID                                 : 6
Duration                                 : 1 h 16 min
Bit rate mode                            : Constant
Bit rate                                 : 192 kb/s
Channel(s)                               : 2 channels
Channel positions                        : Front: L R
Sampling rate                            : 48.0 kHz
Frame rate                               : 31.250 FPS (1536 spf)
Bit depth                                : 16 bits
Compression mode                         : Lossy
Delay relative to video                  : 4 ms
Stream size                              : 105 MiB (2%)
Language                                 : English
Download
[HIDE-REPLY]MEGA[/HIDE-REPLY]
 

succamyx

New Member
Registered
Jan 13, 2019
7
0
1
21
Rihanna - BBC Radio 1 Big Weekend Hackney 2012 (HDTV-1080i)-dylwys


Setlist:

  1. Only Girl (In the World)
    Disturbia
    S&M
    Cockiness (Love It)
    Birthday Cake
    What's My Name?
    Rude Boy
    Love the Way You Lie (Part II)
    Man Down
    Where Have You Been
    Wait Your Turn
    Hard
    Don't Stop the Music
    With Jay-Z
    Run This Town (JAY Z cover) [With Jay-Z]
    Talk That Talk (With Jay-Z)
    Umbrella (With Jay-Z)
    We Found Love
Code:
Format                                   : MPEG-TS
File size                                : 5.09 GiB
Duration                                 : 1 h 16 min
Overall bit rate mode                    : Variable
Overall bit rate                         : 9 552 kb/s

Video
ID                                       : 5500 (0x157C)
Menu ID                                  : 6940 (0x1B1C)
Format                                   : AVC
Format/Info                              : Advanced Video Codec
Format profile                           : High@L4
Format settings, CABAC                   : Yes
Format settings, ReFrames                : 4 frames
Format settings, GOP                     : M=8, N=24
Codec ID                                 : 27
Duration                                 : 1 h 16 min
Bit rate                                 : 8 628 kb/s
Width                                    : 1 920 pixels
Height                                   : 1 080 pixels
Display aspect ratio                     : 16:9
Frame rate                               : 25.000 FPS
Color space                              : YUV
Chroma subsampling                       : 4:2:0
Bit depth                                : 8 bits
Scan type                                : MBAFF
Scan type, store method                  : Interleaved fields
Scan order                               : Top Field First
Bits/(Pixel*Frame)                       : 0.166
Stream size                              : 4.60 GiB (90%)
Color range                              : Limited
Color primaries                          : BT.709
Transfer characteristics                 : BT.709
Matrix coefficients                      : BT.709

Audio #1
ID                                       : 5501 (0x157D)
Menu ID                                  : 6940 (0x1B1C)
Format                                   : AC-3
Format/Info                              : Audio Coding 3
Mode extension                           : CM (complete main)
Format settings, Endianness              : Big
Codec ID                                 : 6
Duration                                 : 1 h 16 min
Bit rate mode                            : Constant
Bit rate                                 : 192 kb/s
Channel(s)                               : 2 channels
Channel positions                        : Front: L R
Sampling rate                            : 48.0 kHz
Frame rate                               : 31.250 FPS (1536 spf)
Bit depth                                : 16 bits
Compression mode                         : Lossy
Delay relative to video                  : 4 ms
Stream size                              : 105 MiB (2%)
Language                                 : English
Download
***Hidden content cannot be quoted.***
thanks
 

HerbivoreXXI

Member
Registered
Feb 16, 2020
49
3
8
23
Rihanna - BBC Radio 1 Big Weekend Hackney 2012 (HDTV-1080i)-dylwys


Setlist:

  1. Only Girl (In the World)
    Disturbia
    S&M
    Cockiness (Love It)
    Birthday Cake
    What's My Name?
    Rude Boy
    Love the Way You Lie (Part II)
    Man Down
    Where Have You Been
    Wait Your Turn
    Hard
    Don't Stop the Music
    With Jay-Z
    Run This Town (JAY Z cover) [With Jay-Z]
    Talk That Talk (With Jay-Z)
    Umbrella (With Jay-Z)
    We Found Love
Code:
Format                                   : MPEG-TS
File size                                : 5.09 GiB
Duration                                 : 1 h 16 min
Overall bit rate mode                    : Variable
Overall bit rate                         : 9 552 kb/s

Video
ID                                       : 5500 (0x157C)
Menu ID                                  : 6940 (0x1B1C)
Format                                   : AVC
Format/Info                              : Advanced Video Codec
Format profile                           : High@L4
Format settings, CABAC                   : Yes
Format settings, ReFrames                : 4 frames
Format settings, GOP                     : M=8, N=24
Codec ID                                 : 27
Duration                                 : 1 h 16 min
Bit rate                                 : 8 628 kb/s
Width                                    : 1 920 pixels
Height                                   : 1 080 pixels
Display aspect ratio                     : 16:9
Frame rate                               : 25.000 FPS
Color space                              : YUV
Chroma subsampling                       : 4:2:0
Bit depth                                : 8 bits
Scan type                                : MBAFF
Scan type, store method                  : Interleaved fields
Scan order                               : Top Field First
Bits/(Pixel*Frame)                       : 0.166
Stream size                              : 4.60 GiB (90%)
Color range                              : Limited
Color primaries                          : BT.709
Transfer characteristics                 : BT.709
Matrix coefficients                      : BT.709

Audio #1
ID                                       : 5501 (0x157D)
Menu ID                                  : 6940 (0x1B1C)
Format                                   : AC-3
Format/Info                              : Audio Coding 3
Mode extension                           : CM (complete main)
Format settings, Endianness              : Big
Codec ID                                 : 6
Duration                                 : 1 h 16 min
Bit rate mode                            : Constant
Bit rate                                 : 192 kb/s
Channel(s)                               : 2 channels
Channel positions                        : Front: L R
Sampling rate                            : 48.0 kHz
Frame rate                               : 31.250 FPS (1536 spf)
Bit depth                                : 16 bits
Compression mode                         : Lossy
Delay relative to video                  : 4 ms
Stream size                              : 105 MiB (2%)
Language                                 : English
Download
***Hidden content cannot be quoted.***
Thanks
 

multimediafm

New Member
Registered
Nov 25, 2019
2
0
1
54
Rihanna - BBC Radio 1 Big Weekend Hackney 2012 (HDTV-1080i)-dylwys


Setlist:

  1. Only Girl (In the World)
    Disturbia
    S&M
    Cockiness (Love It)
    Birthday Cake
    What's My Name?
    Rude Boy
    Love the Way You Lie (Part II)
    Man Down
    Where Have You Been
    Wait Your Turn
    Hard
    Don't Stop the Music
    With Jay-Z
    Run This Town (JAY Z cover) [With Jay-Z]
    Talk That Talk (With Jay-Z)
    Umbrella (With Jay-Z)
    We Found Love
Code:
Format                                   : MPEG-TS
File size                                : 5.09 GiB
Duration                                 : 1 h 16 min
Overall bit rate mode                    : Variable
Overall bit rate                         : 9 552 kb/s

Video
ID                                       : 5500 (0x157C)
Menu ID                                  : 6940 (0x1B1C)
Format                                   : AVC
Format/Info                              : Advanced Video Codec
Format profile                           : High@L4
Format settings, CABAC                   : Yes
Format settings, ReFrames                : 4 frames
Format settings, GOP                     : M=8, N=24
Codec ID                                 : 27
Duration                                 : 1 h 16 min
Bit rate                                 : 8 628 kb/s
Width                                    : 1 920 pixels
Height                                   : 1 080 pixels
Display aspect ratio                     : 16:9
Frame rate                               : 25.000 FPS
Color space                              : YUV
Chroma subsampling                       : 4:2:0
Bit depth                                : 8 bits
Scan type                                : MBAFF
Scan type, store method                  : Interleaved fields
Scan order                               : Top Field First
Bits/(Pixel*Frame)                       : 0.166
Stream size                              : 4.60 GiB (90%)
Color range                              : Limited
Color primaries                          : BT.709
Transfer characteristics                 : BT.709
Matrix coefficients                      : BT.709

Audio #1
ID                                       : 5501 (0x157D)
Menu ID                                  : 6940 (0x1B1C)
Format                                   : AC-3
Format/Info                              : Audio Coding 3
Mode extension                           : CM (complete main)
Format settings, Endianness              : Big
Codec ID                                 : 6
Duration                                 : 1 h 16 min
Bit rate mode                            : Constant
Bit rate                                 : 192 kb/s
Channel(s)                               : 2 channels
Channel positions                        : Front: L R
Sampling rate                            : 48.0 kHz
Frame rate                               : 31.250 FPS (1536 spf)
Bit depth                                : 16 bits
Compression mode                         : Lossy
Delay relative to video                  : 4 ms
Stream size                              : 105 MiB (2%)
Language                                 : English
Download
***Hidden content cannot be quoted.***
Thanks