HDTV Rihanna - Pepsi Super Bowl Fan Jam 2010 (1080i-HDTV)-VideoMan

NCURBAN

Well-Known Member
Administrative
May 25, 2016
3,363
4,230
113
Rihanna - Pepsi Super Bowl Fan Jam 2010 (1080i-HDTV)-VideoMan


Gener: Pop
Live At: BBC Radio 1 Live Lounge
Date: 16th March 2017
Setlist:
  1. Russian Roulette
  2. Hard
  3. Rude Boy
Code:
[LEFT]Format                                   : MPEG-TS
File size                                : 1 010 MiB
Duration                                 : 9 min 54 s
Overall bit rate mode                    : Variable
Overall bit rate                         : 14.3 Mb/s

Video
ID                                       : 4113 (0x1011)
Menu ID                                  : 1 (0x1)
Format                                   : AVC
Format/Info                              : Advanced Video Codec
Format profile                           : Main@L4
Format settings, CABAC                   : Yes
Format settings, ReFrames                : 4 frames
Codec ID                                 : 27
Duration                                 : 9 min 54 s
Bit rate mode                            : Variable
Bit rate                                 : 13.2 Mb/s
Maximum bit rate                         : 20.0 Mb/s
Width                                    : 1 920 pixels
Height                                   : 1 080 pixels
Display aspect ratio                     : 16:9
Frame rate                               : 29.970 (30000/1001) FPS
Color space                              : YUV
Chroma subsampling                       : 4:2:0
Bit depth                                : 8 bits
Scan type                                : Interlaced
Scan type, store method                  : Separated fields
Scan order                               : Top Field First
Bits/(Pixel*Frame)                       : 0.212
Stream size                              : 933 MiB (92%)
Color range                              : Limited
Color primaries                          : BT.709
Transfer characteristics                 : BT.709
Matrix coefficients                      : BT.709

Audio
ID                                       : 4352 (0x1100)
Menu ID                                  : 1 (0x1)
Format                                   : AC-3
Format/Info                              : Audio Coding 3
Mode extension                           : CM (complete main)
Format settings, Endianness              : Big
Codec ID                                 : 129
Duration                                 : 9 min 54 s
Bit rate mode                            : Constant
Bit rate                                 : 384 kb/s
Channel(s)                               : 6 channels
Channel positions                        : Front: L C R, Side: L R, LFE
Sampling rate                            : 48.0 kHz
Frame rate                               : 31.250 FPS (1536 spf)
Bit depth                                : 16 bits
Compression mode                         : Lossy
Stream size                              : 27.2 MiB (3%)
Language                                 : English[/LEFT]
Download
You must reply before you can see the hidden data contained here.
 

SABZ

New Member
Registered
Feb 7, 2018
1
0
1
31
Rihanna - Pepsi Super Bowl Fan Jam 2010 (1080i-HDTV)-VideoMan


Setlist:

  1. Russian Roulette
    Hard
    Rude Boy
Code:
[LEFT]Format                                   : MPEG-TS
File size                                : 1 010 MiB
Duration                                 : 9 min 54 s
Overall bit rate mode                    : Variable
Overall bit rate                         : 14.3 Mb/s

Video
ID                                       : 4113 (0x1011)
Menu ID                                  : 1 (0x1)
Format                                   : AVC
Format/Info                              : Advanced Video Codec
Format profile                           : Main@L4
Format settings, CABAC                   : Yes
Format settings, ReFrames                : 4 frames
Codec ID                                 : 27
Duration                                 : 9 min 54 s
Bit rate mode                            : Variable
Bit rate                                 : 13.2 Mb/s
Maximum bit rate                         : 20.0 Mb/s
Width                                    : 1 920 pixels
Height                                   : 1 080 pixels
Display aspect ratio                     : 16:9
Frame rate                               : 29.970 (30000/1001) FPS
Color space                              : YUV
Chroma subsampling                       : 4:2:0
Bit depth                                : 8 bits
Scan type                                : Interlaced
Scan type, store method                  : Separated fields
Scan order                               : Top Field First
Bits/(Pixel*Frame)                       : 0.212
Stream size                              : 933 MiB (92%)
Color range                              : Limited
Color primaries                          : BT.709
Transfer characteristics                 : BT.709
Matrix coefficients                      : BT.709

Audio
ID                                       : 4352 (0x1100)
Menu ID                                  : 1 (0x1)
Format                                   : AC-3
Format/Info                              : Audio Coding 3
Mode extension                           : CM (complete main)
Format settings, Endianness              : Big
Codec ID                                 : 129
Duration                                 : 9 min 54 s
Bit rate mode                            : Constant
Bit rate                                 : 384 kb/s
Channel(s)                               : 6 channels
Channel positions                        : Front: L C R, Side: L R, LFE
Sampling rate                            : 48.0 kHz
Frame rate                               : 31.250 FPS (1536 spf)
Bit depth                                : 16 bits
Compression mode                         : Lossy
Stream size                              : 27.2 MiB (3%)
Language                                 : English[/LEFT]
Download
***Hidden content cannot be quoted.***
merci
 

poubelle

New Member
Registered
Jan 4, 2020
18
0
1
68
Rihanna - Pepsi Super Bowl Fan Jam 2010 (1080i-HDTV)-VideoMan


Setlist:

  1. Russian Roulette
    Hard
    Rude Boy
Code:
[LEFT]Format                                   : MPEG-TS
File size                                : 1 010 MiB
Duration                                 : 9 min 54 s
Overall bit rate mode                    : Variable
Overall bit rate                         : 14.3 Mb/s

Video
ID                                       : 4113 (0x1011)
Menu ID                                  : 1 (0x1)
Format                                   : AVC
Format/Info                              : Advanced Video Codec
Format profile                           : Main@L4
Format settings, CABAC                   : Yes
Format settings, ReFrames                : 4 frames
Codec ID                                 : 27
Duration                                 : 9 min 54 s
Bit rate mode                            : Variable
Bit rate                                 : 13.2 Mb/s
Maximum bit rate                         : 20.0 Mb/s
Width                                    : 1 920 pixels
Height                                   : 1 080 pixels
Display aspect ratio                     : 16:9
Frame rate                               : 29.970 (30000/1001) FPS
Color space                              : YUV
Chroma subsampling                       : 4:2:0
Bit depth                                : 8 bits
Scan type                                : Interlaced
Scan type, store method                  : Separated fields
Scan order                               : Top Field First
Bits/(Pixel*Frame)                       : 0.212
Stream size                              : 933 MiB (92%)
Color range                              : Limited
Color primaries                          : BT.709
Transfer characteristics                 : BT.709
Matrix coefficients                      : BT.709

Audio
ID                                       : 4352 (0x1100)
Menu ID                                  : 1 (0x1)
Format                                   : AC-3
Format/Info                              : Audio Coding 3
Mode extension                           : CM (complete main)
Format settings, Endianness              : Big
Codec ID                                 : 129
Duration                                 : 9 min 54 s
Bit rate mode                            : Constant
Bit rate                                 : 384 kb/s
Channel(s)                               : 6 channels
Channel positions                        : Front: L C R, Side: L R, LFE
Sampling rate                            : 48.0 kHz
Frame rate                               : 31.250 FPS (1536 spf)
Bit depth                                : 16 bits
Compression mode                         : Lossy
Stream size                              : 27.2 MiB (3%)
Language                                 : English[/LEFT]
Download
***Hidden content cannot be quoted.***