Master Rita Ora - I Will Never Let You Down (Master-720p)-HDMania

NCURBAN

Well-Known Member
Administrative
May 25, 2016
3,358
4,092
113
Rita Ora - I Will Never Let You Down (Master-720p)-HDMania



Genres: Pop, Dance
Released: Mar 31, 2014​

Code:
Format                                   : MPEG-4
Format profile                           : QuickTime
Codec ID                                 : qt  
File size                                : 126 MiB
Duration                                 : 3mn 33s
Overall bit rate                         : 4 927 Kbps
Encoded date                             : UTC 2014-09-15 12:00:17
Tagged date                              : UTC 2014-09-15 12:20:34
Writing application                      : CoreMediaAuthoring 706, CoreMedia 484.60, i386
Writing library                          : Apple QuickTime

Video
ID                                       : 2
Format                                   : AVC
Format/Info                              : Advanced Video Codec
Format profile                           : Main@L3.1
Format settings, CABAC                   : No
Format settings, ReFrames                : 2 frames
Codec ID                                 : avc1
Codec ID/Info                            : Advanced Video Coding
Duration                                 : 3mn 33s
Source duration                          : 3mn 33s
Bit rate                                 : 4 662 Kbps
Width                                    : 1 280 pixels
Height                                   : 720 pixels
Display aspect ratio                     : 16:9
Frame rate mode                          : Variable
Frame rate                               : 23.976 fps
Minimum frame rate                       : 23.810 fps
Maximum frame rate                       : 30.000 fps
Color space                              : YUV
Chroma subsampling                       : 4:2:0
Bit depth                                : 8 bits
Scan type                                : Progressive
Bits/(Pixel*Frame)                       : 0.211
Stream size                              : 119 MiB (95%)
Source stream size                       : 119 MiB (95%)
Title                                    : Core Media Video
Encoded date                             : UTC 2014-09-15 12:00:17
Tagged date                              : UTC 2014-09-15 12:20:34
Color range                              : Limited
Color primaries                          : BT.709
Transfer characteristics                 : BT.709
Matrix coefficients                      : BT.709

Audio
ID                                       : 1
Format                                   : AAC
Format/Info                              : Advanced Audio Codec
Format profile                           : LC
Codec ID                                 : 40
Duration                                 : 3mn 33s
Source duration                          : 3mn 33s
Bit rate mode                            : Constant
Bit rate                                 : 251 Kbps
Nominal bit rate                         : 128 Kbps
Channel(s)                               : 2 channels
Channel positions                        : Front: L R
Sampling rate                            : 44.1 KHz
Compression mode                         : Lossy
Stream size                              : 6.39 MiB (5%)
Source stream size                       : 6.39 MiB (5%)
Title                                    : Core Media Audio
Language                                 : English
Encoded date                             : UTC 2014-09-15 12:00:17
Tagged date                              : UTC 2014-09-15 12:20:34

Download
You must reply before you can see the hidden data contained here.
 
  • Like
Reactions: kimpoy13

LOOOOL

Member
Registered
Dec 2, 2018
73
2
8
23
hah
Rita Ora - I Will Never Let You Down (Master-720p)-HDMania



Genres: Pop, Dance
Released: Mar 31, 2014​

Code:
Format                                   : MPEG-4
Format profile                           : QuickTime
Codec ID                                 : qt 
File size                                : 126 MiB
Duration                                 : 3mn 33s
Overall bit rate                         : 4 927 Kbps
Encoded date                             : UTC 2014-09-15 12:00:17
Tagged date                              : UTC 2014-09-15 12:20:34
Writing application                      : CoreMediaAuthoring 706, CoreMedia 484.60, i386
Writing library                          : Apple QuickTime

Video
ID                                       : 2
Format                                   : AVC
Format/Info                              : Advanced Video Codec
Format profile                           : Main@L3.1
Format settings, CABAC                   : No
Format settings, ReFrames                : 2 frames
Codec ID                                 : avc1
Codec ID/Info                            : Advanced Video Coding
Duration                                 : 3mn 33s
Source duration                          : 3mn 33s
Bit rate                                 : 4 662 Kbps
Width                                    : 1 280 pixels
Height                                   : 720 pixels
Display aspect ratio                     : 16:9
Frame rate mode                          : Variable
Frame rate                               : 23.976 fps
Minimum frame rate                       : 23.810 fps
Maximum frame rate                       : 30.000 fps
Color space                              : YUV
Chroma subsampling                       : 4:2:0
Bit depth                                : 8 bits
Scan type                                : Progressive
Bits/(Pixel*Frame)                       : 0.211
Stream size                              : 119 MiB (95%)
Source stream size                       : 119 MiB (95%)
Title                                    : Core Media Video
Encoded date                             : UTC 2014-09-15 12:00:17
Tagged date                              : UTC 2014-09-15 12:20:34
Color range                              : Limited
Color primaries                          : BT.709
Transfer characteristics                 : BT.709
Matrix coefficients                      : BT.709

Audio
ID                                       : 1
Format                                   : AAC
Format/Info                              : Advanced Audio Codec
Format profile                           : LC
Codec ID                                 : 40
Duration                                 : 3mn 33s
Source duration                          : 3mn 33s
Bit rate mode                            : Constant
Bit rate                                 : 251 Kbps
Nominal bit rate                         : 128 Kbps
Channel(s)                               : 2 channels
Channel positions                        : Front: L R
Sampling rate                            : 44.1 KHz
Compression mode                         : Lossy
Stream size                              : 6.39 MiB (5%)
Source stream size                       : 6.39 MiB (5%)
Title                                    : Core Media Audio
Language                                 : English
Encoded date                             : UTC 2014-09-15 12:00:17
Tagged date                              : UTC 2014-09-15 12:20:34

Download
***Hidden content cannot be quoted.***
a
 

Nyinyi

Member
Registered
Dec 29, 2018
79
0
6
28
Hi

Rita Ora - I Will Never Let You Down (Master-720p)-HDMania



Genres: Pop, Dance
Released: Mar 31, 2014​

Code:
Format                                   : MPEG-4
Format profile                           : QuickTime
Codec ID                                 : qt 
File size                                : 126 MiB
Duration                                 : 3mn 33s
Overall bit rate                         : 4 927 Kbps
Encoded date                             : UTC 2014-09-15 12:00:17
Tagged date                              : UTC 2014-09-15 12:20:34
Writing application                      : CoreMediaAuthoring 706, CoreMedia 484.60, i386
Writing library                          : Apple QuickTime

Video
ID                                       : 2
Format                                   : AVC
Format/Info                              : Advanced Video Codec
Format profile                           : Main@L3.1
Format settings, CABAC                   : No
Format settings, ReFrames                : 2 frames
Codec ID                                 : avc1
Codec ID/Info                            : Advanced Video Coding
Duration                                 : 3mn 33s
Source duration                          : 3mn 33s
Bit rate                                 : 4 662 Kbps
Width                                    : 1 280 pixels
Height                                   : 720 pixels
Display aspect ratio                     : 16:9
Frame rate mode                          : Variable
Frame rate                               : 23.976 fps
Minimum frame rate                       : 23.810 fps
Maximum frame rate                       : 30.000 fps
Color space                              : YUV
Chroma subsampling                       : 4:2:0
Bit depth                                : 8 bits
Scan type                                : Progressive
Bits/(Pixel*Frame)                       : 0.211
Stream size                              : 119 MiB (95%)
Source stream size                       : 119 MiB (95%)
Title                                    : Core Media Video
Encoded date                             : UTC 2014-09-15 12:00:17
Tagged date                              : UTC 2014-09-15 12:20:34
Color range                              : Limited
Color primaries                          : BT.709
Transfer characteristics                 : BT.709
Matrix coefficients                      : BT.709

Audio
ID                                       : 1
Format                                   : AAC
Format/Info                              : Advanced Audio Codec
Format profile                           : LC
Codec ID                                 : 40
Duration                                 : 3mn 33s
Source duration                          : 3mn 33s
Bit rate mode                            : Constant
Bit rate                                 : 251 Kbps
Nominal bit rate                         : 128 Kbps
Channel(s)                               : 2 channels
Channel positions                        : Front: L R
Sampling rate                            : 44.1 KHz
Compression mode                         : Lossy
Stream size                              : 6.39 MiB (5%)
Source stream size                       : 6.39 MiB (5%)
Title                                    : Core Media Audio
Language                                 : English
Encoded date                             : UTC 2014-09-15 12:00:17
Tagged date                              : UTC 2014-09-15 12:20:34

Download
***Hidden content cannot be quoted.***
 

kimpoy13

Member
Registered
Feb 4, 2019
113
2
18
27
Rita Ora - I Will Never Let You Down (Master-720p)-HDMania



Genres: Pop, Dance
Released: Mar 31, 2014​

Code:
Format                                   : MPEG-4
Format profile                           : QuickTime
Codec ID                                 : qt 
File size                                : 126 MiB
Duration                                 : 3mn 33s
Overall bit rate                         : 4 927 Kbps
Encoded date                             : UTC 2014-09-15 12:00:17
Tagged date                              : UTC 2014-09-15 12:20:34
Writing application                      : CoreMediaAuthoring 706, CoreMedia 484.60, i386
Writing library                          : Apple QuickTime

Video
ID                                       : 2
Format                                   : AVC
Format/Info                              : Advanced Video Codec
Format profile                           : Main@L3.1
Format settings, CABAC                   : No
Format settings, ReFrames                : 2 frames
Codec ID                                 : avc1
Codec ID/Info                            : Advanced Video Coding
Duration                                 : 3mn 33s
Source duration                          : 3mn 33s
Bit rate                                 : 4 662 Kbps
Width                                    : 1 280 pixels
Height                                   : 720 pixels
Display aspect ratio                     : 16:9
Frame rate mode                          : Variable
Frame rate                               : 23.976 fps
Minimum frame rate                       : 23.810 fps
Maximum frame rate                       : 30.000 fps
Color space                              : YUV
Chroma subsampling                       : 4:2:0
Bit depth                                : 8 bits
Scan type                                : Progressive
Bits/(Pixel*Frame)                       : 0.211
Stream size                              : 119 MiB (95%)
Source stream size                       : 119 MiB (95%)
Title                                    : Core Media Video
Encoded date                             : UTC 2014-09-15 12:00:17
Tagged date                              : UTC 2014-09-15 12:20:34
Color range                              : Limited
Color primaries                          : BT.709
Transfer characteristics                 : BT.709
Matrix coefficients                      : BT.709

Audio
ID                                       : 1
Format                                   : AAC
Format/Info                              : Advanced Audio Codec
Format profile                           : LC
Codec ID                                 : 40
Duration                                 : 3mn 33s
Source duration                          : 3mn 33s
Bit rate mode                            : Constant
Bit rate                                 : 251 Kbps
Nominal bit rate                         : 128 Kbps
Channel(s)                               : 2 channels
Channel positions                        : Front: L R
Sampling rate                            : 44.1 KHz
Compression mode                         : Lossy
Stream size                              : 6.39 MiB (5%)
Source stream size                       : 6.39 MiB (5%)
Title                                    : Core Media Audio
Language                                 : English
Encoded date                             : UTC 2014-09-15 12:00:17
Tagged date                              : UTC 2014-09-15 12:20:34

Download
***Hidden content cannot be quoted.***[/QUOTE]
 

Icaka03

Member
Registered
May 11, 2019
99
1
8
24
Rita Ora - I Will Never Let You Down (Master-720p)-HDMania



Genres: Pop, Dance
Released: Mar 31, 2014​

Code:
Format                                   : MPEG-4
Format profile                           : QuickTime
Codec ID                                 : qt 
File size                                : 126 MiB
Duration                                 : 3mn 33s
Overall bit rate                         : 4 927 Kbps
Encoded date                             : UTC 2014-09-15 12:00:17
Tagged date                              : UTC 2014-09-15 12:20:34
Writing application                      : CoreMediaAuthoring 706, CoreMedia 484.60, i386
Writing library                          : Apple QuickTime

Video
ID                                       : 2
Format                                   : AVC
Format/Info                              : Advanced Video Codec
Format profile                           : Main@L3.1
Format settings, CABAC                   : No
Format settings, ReFrames                : 2 frames
Codec ID                                 : avc1
Codec ID/Info                            : Advanced Video Coding
Duration                                 : 3mn 33s
Source duration                          : 3mn 33s
Bit rate                                 : 4 662 Kbps
Width                                    : 1 280 pixels
Height                                   : 720 pixels
Display aspect ratio                     : 16:9
Frame rate mode                          : Variable
Frame rate                               : 23.976 fps
Minimum frame rate                       : 23.810 fps
Maximum frame rate                       : 30.000 fps
Color space                              : YUV
Chroma subsampling                       : 4:2:0
Bit depth                                : 8 bits
Scan type                                : Progressive
Bits/(Pixel*Frame)                       : 0.211
Stream size                              : 119 MiB (95%)
Source stream size                       : 119 MiB (95%)
Title                                    : Core Media Video
Encoded date                             : UTC 2014-09-15 12:00:17
Tagged date                              : UTC 2014-09-15 12:20:34
Color range                              : Limited
Color primaries                          : BT.709
Transfer characteristics                 : BT.709
Matrix coefficients                      : BT.709

Audio
ID                                       : 1
Format                                   : AAC
Format/Info                              : Advanced Audio Codec
Format profile                           : LC
Codec ID                                 : 40
Duration                                 : 3mn 33s
Source duration                          : 3mn 33s
Bit rate mode                            : Constant
Bit rate                                 : 251 Kbps
Nominal bit rate                         : 128 Kbps
Channel(s)                               : 2 channels
Channel positions                        : Front: L R
Sampling rate                            : 44.1 KHz
Compression mode                         : Lossy
Stream size                              : 6.39 MiB (5%)
Source stream size                       : 6.39 MiB (5%)
Title                                    : Core Media Audio
Language                                 : English
Encoded date                             : UTC 2014-09-15 12:00:17
Tagged date                              : UTC 2014-09-15 12:20:34

Download
***Hidden content cannot be quoted.***
thankssssssssssss
 

babestv

New Member
Registered
May 2, 2020
27
0
1
27
Rita Ora - I Will Never Let You Down (Master-720p)-HDMania



Genres: Pop, Dance
Released: Mar 31, 2014​

Code:
Format                                   : MPEG-4
Format profile                           : QuickTime
Codec ID                                 : qt 
File size                                : 126 MiB
Duration                                 : 3mn 33s
Overall bit rate                         : 4 927 Kbps
Encoded date                             : UTC 2014-09-15 12:00:17
Tagged date                              : UTC 2014-09-15 12:20:34
Writing application                      : CoreMediaAuthoring 706, CoreMedia 484.60, i386
Writing library                          : Apple QuickTime

Video
ID                                       : 2
Format                                   : AVC
Format/Info                              : Advanced Video Codec
Format profile                           : Main@L3.1
Format settings, CABAC                   : No
Format settings, ReFrames                : 2 frames
Codec ID                                 : avc1
Codec ID/Info                            : Advanced Video Coding
Duration                                 : 3mn 33s
Source duration                          : 3mn 33s
Bit rate                                 : 4 662 Kbps
Width                                    : 1 280 pixels
Height                                   : 720 pixels
Display aspect ratio                     : 16:9
Frame rate mode                          : Variable
Frame rate                               : 23.976 fps
Minimum frame rate                       : 23.810 fps
Maximum frame rate                       : 30.000 fps
Color space                              : YUV
Chroma subsampling                       : 4:2:0
Bit depth                                : 8 bits
Scan type                                : Progressive
Bits/(Pixel*Frame)                       : 0.211
Stream size                              : 119 MiB (95%)
Source stream size                       : 119 MiB (95%)
Title                                    : Core Media Video
Encoded date                             : UTC 2014-09-15 12:00:17
Tagged date                              : UTC 2014-09-15 12:20:34
Color range                              : Limited
Color primaries                          : BT.709
Transfer characteristics                 : BT.709
Matrix coefficients                      : BT.709

Audio
ID                                       : 1
Format                                   : AAC
Format/Info                              : Advanced Audio Codec
Format profile                           : LC
Codec ID                                 : 40
Duration                                 : 3mn 33s
Source duration                          : 3mn 33s
Bit rate mode                            : Constant
Bit rate                                 : 251 Kbps
Nominal bit rate                         : 128 Kbps
Channel(s)                               : 2 channels
Channel positions                        : Front: L R
Sampling rate                            : 44.1 KHz
Compression mode                         : Lossy
Stream size                              : 6.39 MiB (5%)
Source stream size                       : 6.39 MiB (5%)
Title                                    : Core Media Audio
Language                                 : English
Encoded date                             : UTC 2014-09-15 12:00:17
Tagged date                              : UTC 2014-09-15 12:20:34

Download
***Hidden content cannot be quoted.***
super