WEBRIP Rita Ora - London Live Special 2012 (WEBRIP-1080p)

NCURBAN

Well-Known Member
Administrative
May 25, 2016
3,347
3,595
113
Rita Ora - London Live Special 2012 (WEBRIP-1080p)



Code:
Format                                   : MPEG-4
Format profile                           : Base Media
Codec ID                                 : isom
File size                                : 239 MiB
Duration                                 : 21mn 49s
Overall bit rate mode                    : Variable
Overall bit rate                         : 1 532 Kbps
Encoded date                             : UTC 2015-02-21 14:22:53
Tagged date                              : UTC 2015-02-21 14:22:53

Video
ID                                       : 1
Format                                   : AVC
Format/Info                              : Advanced Video Codec
Format profile                           : High@L4
Format settings, CABAC                   : Yes
Format settings, ReFrames                : 2 frames
Codec ID                                 : avc1
Codec ID/Info                            : Advanced Video Coding
Duration                                 : 21mn 49s
Bit rate mode                            : Constant
Bit rate                                 : 1 400 Kbps
Nominal bit rate                         : 2 500 Kbps
Maximum bit rate                         : 3 965 Kbps
Width                                    : 1 280 pixels
Height                                   : 720 pixels
Display aspect ratio                     : 16:9
Frame rate mode                          : Constant
Frame rate                               : 25.000 fps
Standard                                 : PAL
Color space                              : YUV
Chroma subsampling                       : 4:2:0
Bit depth                                : 8 bits
Scan type                                : Progressive
Bits/(Pixel*Frame)                       : 0.061
Stream size                              : 219 MiB (91%)
Title                                    : mp4.h264@GPAC0.5.2-DEV-revUNKNOWN---abbrev-ref e49ddede709053046670a7e46b616b936a1c853c
Encoded date                             : UTC 2015-02-21 14:22:53
Tagged date                              : UTC 2015-02-21 14:23:03
Color range                              : Limited
Color primaries                          : BT.709
Transfer characteristics                 : BT.709
Matrix coefficients                      : BT.709

Audio
ID                                       : 2
Format                                   : AAC
Format/Info                              : Advanced Audio Codec
Format profile                           : LC
Codec ID                                 : 40
Duration                                 : 21mn 49s
Bit rate mode                            : Variable
Bit rate                                 : 128 Kbps
Maximum bit rate                         : 135 Kbps
Channel(s)                               : 2 channels
Channel positions                        : Front: L R
Sampling rate                            : 48.0 KHz
Compression mode                         : Lossy
Stream size                              : 20.0 MiB (8%)
Title                                    : mp4.aac@GPAC0.5.2-DEV-revUNKNOWN---abbrev-ref e49ddede709053046670a7e46b616b936a1c853c
Encoded date                             : UTC 2015-02-21 14:23:03
Tagged date                              : UTC 2015-02-21 14:23:03

Download
You must reply before you can see the hidden data contained here.