HDTV Robbie Williams - The Royal Variety Performance 2016 (HDTV-1080i)-kmfan

NCURBAN

Well-Known Member
Administrative
May 25, 2016
3,347
3,619
113
Robbie Williams - The Heavy Entertainment Show, Something Stupid (Ft. David Williams) [The Royal Variety Performance 2016] (HDTV-1080i)-kmfan


Genre: Pop
At: The Royal Variety Performance
Date: Dec 13, 2016
Code:
Format                                   : MPEG-TS
File size                                : 371 MiB
Duration                                 : 7 min 14 s
Overall bit rate mode                    : Variable
Overall bit rate                         : 7 170 kb/s

Video
ID                                       : 2330 (0x91A)
Menu ID                                  : 20740 (0x5104)
Format                                   : AVC
Format/Info                              : Advanced Video Codec
Format profile                           : Main@L4
Format settings, CABAC                   : Yes
Format settings, ReFrames                : 4 frames
Codec ID                                 : 27
Duration                                 : 7 min 14 s
Bit rate                                 : 6 461 kb/s
Width                                    : 1 920 pixels
Height                                   : 1 080 pixels
Display aspect ratio                     : 16:9
Frame rate                               : 25.000 FPS
Standard                                 : Component
Color space                              : YUV
Chroma subsampling                       : 4:2:0
Bit depth                                : 8 bits
Scan type                                : MBAFF
Scan type, store method                  : Interleaved fields
Scan order                               : Top Field First
Bits/(Pixel*Frame)                       : 0.125
Stream size                              : 334 MiB (90%)
Color range                              : Limited
Color primaries                          : BT.709
Transfer characteristics                 : BT.709
Matrix coefficients                      : BT.709

Audio #1
ID                                       : 2331 (0x91B)
Menu ID                                  : 20740 (0x5104)
Format                                   : AC-3
Format/Info                              : Audio Coding 3
Mode extension                           : CM (complete main)
Format settings, Endianness              : Big
Codec ID                                 : 6
Duration                                 : 7 min 14 s
Bit rate mode                            : Constant
Bit rate                                 : 192 kb/s
Channel(s)                               : 2 channels
Channel positions                        : Front: L R
Sampling rate                            : 48.0 kHz
Frame rate                               : 31.250 FPS (1536 spf)
Bit depth                                : 16 bits
Compression mode                         : Lossy
Delay relative to video                  : -24 ms
Stream size                              : 9.94 MiB (3%)
Language                                 : English
Download
You must reply before you can see the hidden data contained here.