BLU-RAY Selena Gomez - Come & Get It (BluRay-1080p)

NCURBAN

Well-Known Member
Administrative
May 25, 2016
3,347
3,599
113
Selena Gomez - Come & Get It (BluRay-1080p)


Gener: Pop
Released: May 7, 2013
Copuright: (C) 2013 Hollywood Records, Inc.
Code:
Format                                   : BDAV
Format/Info                              : Blu-ray Video
File size                                : 811 MiB
Duration                                 : 4 min 42 s
Overall bit rate mode                    : Variable
Overall bit rate                         : 24.1 Mb/s
Maximum Overall bit rate                 : 35.5 Mb/s

Video
ID                                       : 4113 (0x1011)
Menu ID                                  : 1 (0x1)
Format                                   : AVC
Format/Info                              : Advanced Video Codec
Format profile                           : High@L4.1
Format settings, CABAC                   : Yes
Format settings, ReFrames                : 4 frames
Codec ID                                 : 27
Duration                                 : 4 min 42 s
Bit rate mode                            : Variable
Bit rate                                 : 22.5 Mb/s
Maximum bit rate                         : 40.0 Mb/s
Width                                    : 1 920 pixels
Height                                   : 712 pixels
Display aspect ratio                     : 2.697
Frame rate                               : 59.940 (59940/1000) FPS
Color space                              : YUV
Chroma subsampling                       : 4:2:0
Bit depth                                : 8 bits
Scan type                                : Progressive
Bits/(Pixel*Frame)                       : 0.274
Stream size                              : 757 MiB (93%)

Audio
ID                                       : 4352 (0x1100)
Menu ID                                  : 1 (0x1)
Format                                   : AC-3
Format/Info                              : Audio Coding 3
Mode extension                           : CM (complete main)
Format settings, Endianness              : Big
Codec ID                                 : 129
Duration                                 : 4 min 42 s
Bit rate mode                            : Constant
Bit rate                                 : 640 kb/s
Channel(s)                               : 6 channels
Channel positions                        : Front: L C R, Side: L R, LFE
Sampling rate                            : 48.0 kHz
Frame rate                               : 31.250 FPS (1536 spf)
Bit depth                                : 16 bits
Compression mode                         : Lossy
Stream size                              : 21.6 MiB (3%)
Download
You must reply before you can see the hidden data contained here.
 
Last edited:

emotionoff

New Member
Registered
Jul 11, 2018
10
0
1
21
Selena Gomez - Come & Get It (BluRay-1080p)



Code:
Format                                   : BDAV
Format/Info                              : Blu-ray Video
File size                                : 811 MiB
Duration                                 : 4 min 42 s
Overall bit rate mode                    : Variable
Overall bit rate                         : 24.1 Mb/s
Maximum Overall bit rate                 : 35.5 Mb/s

Video
ID                                       : 4113 (0x1011)
Menu ID                                  : 1 (0x1)
Format                                   : AVC
Format/Info                              : Advanced Video Codec
Format profile                           : High@L4.1
Format settings, CABAC                   : Yes
Format settings, ReFrames                : 4 frames
Codec ID                                 : 27
Duration                                 : 4 min 42 s
Bit rate mode                            : Variable
Bit rate                                 : 22.5 Mb/s
Maximum bit rate                         : 40.0 Mb/s
Width                                    : 1 920 pixels
Height                                   : 712 pixels
Display aspect ratio                     : 2.697
Frame rate                               : 59.940 (59940/1000) FPS
Color space                              : YUV
Chroma subsampling                       : 4:2:0
Bit depth                                : 8 bits
Scan type                                : Progressive
Bits/(Pixel*Frame)                       : 0.274
Stream size                              : 757 MiB (93%)

Audio
ID                                       : 4352 (0x1100)
Menu ID                                  : 1 (0x1)
Format                                   : AC-3
Format/Info                              : Audio Coding 3
Mode extension                           : CM (complete main)
Format settings, Endianness              : Big
Codec ID                                 : 129
Duration                                 : 4 min 42 s
Bit rate mode                            : Constant
Bit rate                                 : 640 kb/s
Channel(s)                               : 6 channels
Channel positions                        : Front: L C R, Side: L R, LFE
Sampling rate                            : 48.0 kHz
Frame rate                               : 31.250 FPS (1536 spf)
Bit depth                                : 16 bits
Compression mode                         : Lossy
Stream size                              : 21.6 MiB (3%)
Download
***Hidden content cannot be quoted.***
thanks
 

Nyinyi

Member
Registered
Dec 29, 2018
75
0
6
28
Selena Gomez - Come & Get It (BluRay-1080p)



Code:
Format                                   : BDAV
Format/Info                              : Blu-ray Video
File size                                : 811 MiB
Duration                                 : 4 min 42 s
Overall bit rate mode                    : Variable
Overall bit rate                         : 24.1 Mb/s
Maximum Overall bit rate                 : 35.5 Mb/s

Video
ID                                       : 4113 (0x1011)
Menu ID                                  : 1 (0x1)
Format                                   : AVC
Format/Info                              : Advanced Video Codec
Format profile                           : High@L4.1
Format settings, CABAC                   : Yes
Format settings, ReFrames                : 4 frames
Codec ID                                 : 27
Duration                                 : 4 min 42 s
Bit rate mode                            : Variable
Bit rate                                 : 22.5 Mb/s
Maximum bit rate                         : 40.0 Mb/s
Width                                    : 1 920 pixels
Height                                   : 712 pixels
Display aspect ratio                     : 2.697
Frame rate                               : 59.940 (59940/1000) FPS
Color space                              : YUV
Chroma subsampling                       : 4:2:0
Bit depth                                : 8 bits
Scan type                                : Progressive
Bits/(Pixel*Frame)                       : 0.274
Stream size                              : 757 MiB (93%)

Audio
ID                                       : 4352 (0x1100)
Menu ID                                  : 1 (0x1)
Format                                   : AC-3
Format/Info                              : Audio Coding 3
Mode extension                           : CM (complete main)
Format settings, Endianness              : Big
Codec ID                                 : 129
Duration                                 : 4 min 42 s
Bit rate mode                            : Constant
Bit rate                                 : 640 kb/s
Channel(s)                               : 6 channels
Channel positions                        : Front: L C R, Side: L R, LFE
Sampling rate                            : 48.0 kHz
Frame rate                               : 31.250 FPS (1536 spf)
Bit depth                                : 16 bits
Compression mode                         : Lossy
Stream size                              : 21.6 MiB (3%)
Download
***Hidden content cannot be quoted.***
Hi
 

Srema arub

New Member
Registered
Dec 27, 2018
22
0
1
26
Selena Gomez - Come & Get It (BluRay-1080p)



Code:
Format                                   : BDAV
Format/Info                              : Blu-ray Video
File size                                : 811 MiB
Duration                                 : 4 min 42 s
Overall bit rate mode                    : Variable
Overall bit rate                         : 24.1 Mb/s
Maximum Overall bit rate                 : 35.5 Mb/s

Video
ID                                       : 4113 (0x1011)
Menu ID                                  : 1 (0x1)
Format                                   : AVC
Format/Info                              : Advanced Video Codec
Format profile                           : High@L4.1
Format settings, CABAC                   : Yes
Format settings, ReFrames                : 4 frames
Codec ID                                 : 27
Duration                                 : 4 min 42 s
Bit rate mode                            : Variable
Bit rate                                 : 22.5 Mb/s
Maximum bit rate                         : 40.0 Mb/s
Width                                    : 1 920 pixels
Height                                   : 712 pixels
Display aspect ratio                     : 2.697
Frame rate                               : 59.940 (59940/1000) FPS
Color space                              : YUV
Chroma subsampling                       : 4:2:0
Bit depth                                : 8 bits
Scan type                                : Progressive
Bits/(Pixel*Frame)                       : 0.274
Stream size                              : 757 MiB (93%)

Audio
ID                                       : 4352 (0x1100)
Menu ID                                  : 1 (0x1)
Format                                   : AC-3
Format/Info                              : Audio Coding 3
Mode extension                           : CM (complete main)
Format settings, Endianness              : Big
Codec ID                                 : 129
Duration                                 : 4 min 42 s
Bit rate mode                            : Constant
Bit rate                                 : 640 kb/s
Channel(s)                               : 6 channels
Channel positions                        : Front: L C R, Side: L R, LFE
Sampling rate                            : 48.0 kHz
Frame rate                               : 31.250 FPS (1536 spf)
Bit depth                                : 16 bits
Compression mode                         : Lossy
Stream size                              : 21.6 MiB (3%)
Download
***Hidden content cannot be quoted.***
thankeww
 

miamia

Member
Registered
Jan 23, 2019
54
0
6
19
Selena Gomez - Come & Get It (BluRay-1080p)



Code:
Format                                   : BDAV
Format/Info                              : Blu-ray Video
File size                                : 811 MiB
Duration                                 : 4 min 42 s
Overall bit rate mode                    : Variable
Overall bit rate                         : 24.1 Mb/s
Maximum Overall bit rate                 : 35.5 Mb/s

Video
ID                                       : 4113 (0x1011)
Menu ID                                  : 1 (0x1)
Format                                   : AVC
Format/Info                              : Advanced Video Codec
Format profile                           : High@L4.1
Format settings, CABAC                   : Yes
Format settings, ReFrames                : 4 frames
Codec ID                                 : 27
Duration                                 : 4 min 42 s
Bit rate mode                            : Variable
Bit rate                                 : 22.5 Mb/s
Maximum bit rate                         : 40.0 Mb/s
Width                                    : 1 920 pixels
Height                                   : 712 pixels
Display aspect ratio                     : 2.697
Frame rate                               : 59.940 (59940/1000) FPS
Color space                              : YUV
Chroma subsampling                       : 4:2:0
Bit depth                                : 8 bits
Scan type                                : Progressive
Bits/(Pixel*Frame)                       : 0.274
Stream size                              : 757 MiB (93%)

Audio
ID                                       : 4352 (0x1100)
Menu ID                                  : 1 (0x1)
Format                                   : AC-3
Format/Info                              : Audio Coding 3
Mode extension                           : CM (complete main)
Format settings, Endianness              : Big
Codec ID                                 : 129
Duration                                 : 4 min 42 s
Bit rate mode                            : Constant
Bit rate                                 : 640 kb/s
Channel(s)                               : 6 channels
Channel positions                        : Front: L C R, Side: L R, LFE
Sampling rate                            : 48.0 kHz
Frame rate                               : 31.250 FPS (1536 spf)
Bit depth                                : 16 bits
Compression mode                         : Lossy
Stream size                              : 21.6 MiB (3%)
Download
***Hidden content cannot be quoted.***
thanks
 

deanwinchester

New Member
Registered
Feb 1, 2019
17
0
1
25
Awesome
Selena Gomez - Come & Get It (BluRay-1080p)



Code:
Format                                   : BDAV
Format/Info                              : Blu-ray Video
File size                                : 811 MiB
Duration                                 : 4 min 42 s
Overall bit rate mode                    : Variable
Overall bit rate                         : 24.1 Mb/s
Maximum Overall bit rate                 : 35.5 Mb/s

Video
ID                                       : 4113 (0x1011)
Menu ID                                  : 1 (0x1)
Format                                   : AVC
Format/Info                              : Advanced Video Codec
Format profile                           : High@L4.1
Format settings, CABAC                   : Yes
Format settings, ReFrames                : 4 frames
Codec ID                                 : 27
Duration                                 : 4 min 42 s
Bit rate mode                            : Variable
Bit rate                                 : 22.5 Mb/s
Maximum bit rate                         : 40.0 Mb/s
Width                                    : 1 920 pixels
Height                                   : 712 pixels
Display aspect ratio                     : 2.697
Frame rate                               : 59.940 (59940/1000) FPS
Color space                              : YUV
Chroma subsampling                       : 4:2:0
Bit depth                                : 8 bits
Scan type                                : Progressive
Bits/(Pixel*Frame)                       : 0.274
Stream size                              : 757 MiB (93%)

Audio
ID                                       : 4352 (0x1100)
Menu ID                                  : 1 (0x1)
Format                                   : AC-3
Format/Info                              : Audio Coding 3
Mode extension                           : CM (complete main)
Format settings, Endianness              : Big
Codec ID                                 : 129
Duration                                 : 4 min 42 s
Bit rate mode                            : Constant
Bit rate                                 : 640 kb/s
Channel(s)                               : 6 channels
Channel positions                        : Front: L C R, Side: L R, LFE
Sampling rate                            : 48.0 kHz
Frame rate                               : 31.250 FPS (1536 spf)
Bit depth                                : 16 bits
Compression mode                         : Lossy
Stream size                              : 21.6 MiB (3%)
Download
***Hidden content cannot be quoted.***
 

kimpoy13

Member
Registered
Feb 4, 2019
113
2
18
26
Selena Gomez - Come & Get It (BluRay-1080p)​



Code:
Format                                   : BDAV
Format/Info                              : Blu-ray Video
File size                                : 811 MiB
Duration                                 : 4 min 42 s
Overall bit rate mode                    : Variable
Overall bit rate                         : 24.1 Mb/s
Maximum Overall bit rate                 : 35.5 Mb/s

Video
ID                                       : 4113 (0x1011)
Menu ID                                  : 1 (0x1)
Format                                   : AVC
Format/Info                              : Advanced Video Codec
Format profile                           : High@L4.1
Format settings, CABAC                   : Yes
Format settings, ReFrames                : 4 frames
Codec ID                                 : 27
Duration                                 : 4 min 42 s
Bit rate mode                            : Variable
Bit rate                                 : 22.5 Mb/s
Maximum bit rate                         : 40.0 Mb/s
Width                                    : 1 920 pixels
Height                                   : 712 pixels
Display aspect ratio                     : 2.697
Frame rate                               : 59.940 (59940/1000) FPS
Color space                              : YUV
Chroma subsampling                       : 4:2:0
Bit depth                                : 8 bits
Scan type                                : Progressive
Bits/(Pixel*Frame)                       : 0.274
Stream size                              : 757 MiB (93%)

Audio
ID                                       : 4352 (0x1100)
Menu ID                                  : 1 (0x1)
Format                                   : AC-3
Format/Info                              : Audio Coding 3
Mode extension                           : CM (complete main)
Format settings, Endianness              : Big
Codec ID                                 : 129
Duration                                 : 4 min 42 s
Bit rate mode                            : Constant
Bit rate                                 : 640 kb/s
Channel(s)                               : 6 channels
Channel positions                        : Front: L C R, Side: L R, LFE
Sampling rate                            : 48.0 kHz
Frame rate                               : 31.250 FPS (1536 spf)
Bit depth                                : 16 bits
Compression mode                         : Lossy
Stream size                              : 21.6 MiB (3%)
Download
***Hidden content cannot be quoted.***[/QUOTE]
 

Mahmoud

New Member
Registered
Mar 28, 2019
6
0
1
29
go
Selena Gomez - Come & Get It (BluRay-1080p)



Code:
Format                                   : BDAV
Format/Info                              : Blu-ray Video
File size                                : 811 MiB
Duration                                 : 4 min 42 s
Overall bit rate mode                    : Variable
Overall bit rate                         : 24.1 Mb/s
Maximum Overall bit rate                 : 35.5 Mb/s

Video
ID                                       : 4113 (0x1011)
Menu ID                                  : 1 (0x1)
Format                                   : AVC
Format/Info                              : Advanced Video Codec
Format profile                           : High@L4.1
Format settings, CABAC                   : Yes
Format settings, ReFrames                : 4 frames
Codec ID                                 : 27
Duration                                 : 4 min 42 s
Bit rate mode                            : Variable
Bit rate                                 : 22.5 Mb/s
Maximum bit rate                         : 40.0 Mb/s
Width                                    : 1 920 pixels
Height                                   : 712 pixels
Display aspect ratio                     : 2.697
Frame rate                               : 59.940 (59940/1000) FPS
Color space                              : YUV
Chroma subsampling                       : 4:2:0
Bit depth                                : 8 bits
Scan type                                : Progressive
Bits/(Pixel*Frame)                       : 0.274
Stream size                              : 757 MiB (93%)

Audio
ID                                       : 4352 (0x1100)
Menu ID                                  : 1 (0x1)
Format                                   : AC-3
Format/Info                              : Audio Coding 3
Mode extension                           : CM (complete main)
Format settings, Endianness              : Big
Codec ID                                 : 129
Duration                                 : 4 min 42 s
Bit rate mode                            : Constant
Bit rate                                 : 640 kb/s
Channel(s)                               : 6 channels
Channel positions                        : Front: L C R, Side: L R, LFE
Sampling rate                            : 48.0 kHz
Frame rate                               : 31.250 FPS (1536 spf)
Bit depth                                : 16 bits
Compression mode                         : Lossy
Stream size                              : 21.6 MiB (3%)
Download
***Hidden content cannot be quoted.***
goooooooood