HDTV Selena Gomez & Gwen Stefani - Interview (Access Hollywood 2015) [HDTV-1080i]-TrollHD

NCURBAN

Well-Known Member
Administrative
May 25, 2016
3,347
3,611
113
Selena Gomez & Gwen Stefani - Interview (Access Hollywood 2015) [HDTV-1080i]-TrollHD






TV Show: NBC
At: Access Hollywood
Date: 17 Aug, 2015
Code:
Format                                   : MPEG-TS
File size                                : 434 MiB
Duration                                 : 3 min 35 s
Overall bit rate mode                    : Variable
Overall bit rate                         : 16.9 Mb/s
Movie name                               : ACCESS HOLLYWOOD 
Law rating                               : TV-PG

Video
ID                                       : 7541 (0x1D75)
Menu ID                                  : 1027 (0x403)
Format                                   : MPEG Video
Format version                           : Version 2
Format profile                           : Main@High
Format settings, BVOP                    : Yes
Format settings, Matrix                  : Custom
Format settings, GOP                     : Variable
Format settings, picture structure       : Frame
Codec ID                                 : 2
Duration                                 : 3 min 35 s
Bit rate mode                            : Variable
Bit rate                                 : 15.5 Mb/s
Maximum bit rate                         : 24.0 Mb/s
Width                                    : 1 920 pixels
Height                                   : 1 080 pixels
Display aspect ratio                     : 16:9
Active Format Description                : Full frame 16:9 image
Frame rate                               : 29.970 (30000/1001) FPS
Color space                              : YUV
Chroma subsampling                       : 4:2:0
Bit depth                                : 8 bits
Scan type                                : Interlaced
Scan order                               : Top Field First
Compression mode                         : Lossy
Bits/(Pixel*Frame)                       : 0.249
Time code of first frame                 : 00:00:00;00
Time code source                         : Group of pictures header
GOP, Open/Closed                         : Open
Stream size                              : 397 MiB (91%)

Audio #1
ID                                       : 7542 (0x1D76)
Menu ID                                  : 1027 (0x403)
Format                                   : AC-3
Format/Info                              : Audio Coding 3
Mode extension                           : CM (complete main)
Format settings, Endianness              : Big
Codec ID                                 : 129
Duration                                 : 3 min 35 s
Bit rate mode                            : Constant
Bit rate                                 : 384 kb/s
Channel(s)                               : 6 channels
Channel positions                        : Front: L C R, Side: L R, LFE
Sampling rate                            : 48.0 kHz
Frame rate                               : 31.250 FPS (1536 spf)
Bit depth                                : 16 bits
Compression mode                         : Lossy
Delay relative to video                  : 20 ms
Stream size                              : 9.87 MiB (2%)
Language                                 : English

Download
You must reply before you can see the hidden data contained here.