ProRes Selena Gomez - Kill Em' With Kindness (LPCM 24 Bits-Master-ProRes-1080p)

NCURBAN

Well-Known Member
Administrative
May 25, 2016
3,360
4,161
113
Selena Gomez - Kill Em' With Kindness (LPCM 24 Bits-Master-ProRes-1080p)



Genres: Pop
Released: Jan 06, 2016
℗ 2015 Interscope Records

Code:
Format                                   : QuickTime
Format/Info                              : Original Apple specifications
File size                                : 2.00 GiB
Duration                                 : 3mn 45s
Overall bit rate mode                    : Variable
Overall bit rate                         : 75.9 Mbps
Encoded date                             : UTC 2016-06-13 22:40:53
Tagged date                              : UTC 2016-06-13 22:40:53
Writing library                          : Apple QuickTime

Video
ID                                       : 1
Format                                   : ProRes
Format version                           : Version 0
Format profile                           : 422 LT
Codec ID                                 : apcs
Duration                                 : 3mn 45s
Bit rate mode                            : Variable
Bit rate                                 : 73.6 Mbps
Width                                    : 1 920 pixels
Height                                   : 1 080 pixels
Display aspect ratio                     : 16:9
Frame rate mode                          : Constant
Frame rate                               : 24.000 fps
Color space                              : YUV
Chroma subsampling                       : 4:2:2
Scan type                                : Progressive
Bits/(Pixel*Frame)                       : 1.480
Stream size                              : 1.94 GiB (97%)
Writing library                          : apt0
Language                                 : English
Encoded date                             : UTC 2016-06-13 22:40:53
Tagged date                              : UTC 2016-06-13 22:40:53
Color primaries                          : BT.709
Transfer characteristics                 : BT.709
Matrix coefficients                      : BT.709
matrix_coefficients_Original             : BT.709

Audio
ID                                       : 2
Format                                   : PCM
Format settings, Endianness              : Little
Format settings, Sign                    : Unsigned
Codec ID                                 : in24
Duration                                 : 3mn 45s
Bit rate mode                            : Constant
Bit rate                                 : 2 304 Kbps
Channel(s)                               : 2 channels
Channel positions                        : Front: L R
Sampling rate                            : 48.0 KHz
Bit depth                                : 24 bits
Stream size                              : 62.0 MiB (3%)
Language                                 : English
Encoded date                             : UTC 2016-06-13 22:40:53

Download
[HIDE-REPLY]MEGA[/HIDE-REPLY]
 

xXIMANXx

Member
Registered
Oct 31, 2018
384
6
18
20
Selena Gomez - Kill Em' With Kindness (LPCM 24 Bits-Master-ProRes-1080p)



Genres: Pop
Released: Jan 06, 2016
℗ 2015 Interscope Records

Code:
Format                                   : QuickTime
Format/Info                              : Original Apple specifications
File size                                : 2.00 GiB
Duration                                 : 3mn 45s
Overall bit rate mode                    : Variable
Overall bit rate                         : 75.9 Mbps
Encoded date                             : UTC 2016-06-13 22:40:53
Tagged date                              : UTC 2016-06-13 22:40:53
Writing library                          : Apple QuickTime

Video
ID                                       : 1
Format                                   : ProRes
Format version                           : Version 0
Format profile                           : 422 LT
Codec ID                                 : apcs
Duration                                 : 3mn 45s
Bit rate mode                            : Variable
Bit rate                                 : 73.6 Mbps
Width                                    : 1 920 pixels
Height                                   : 1 080 pixels
Display aspect ratio                     : 16:9
Frame rate mode                          : Constant
Frame rate                               : 24.000 fps
Color space                              : YUV
Chroma subsampling                       : 4:2:2
Scan type                                : Progressive
Bits/(Pixel*Frame)                       : 1.480
Stream size                              : 1.94 GiB (97%)
Writing library                          : apt0
Language                                 : English
Encoded date                             : UTC 2016-06-13 22:40:53
Tagged date                              : UTC 2016-06-13 22:40:53
Color primaries                          : BT.709
Transfer characteristics                 : BT.709
Matrix coefficients                      : BT.709
matrix_coefficients_Original             : BT.709

Audio
ID                                       : 2
Format                                   : PCM
Format settings, Endianness              : Little
Format settings, Sign                    : Unsigned
Codec ID                                 : in24
Duration                                 : 3mn 45s
Bit rate mode                            : Constant
Bit rate                                 : 2 304 Kbps
Channel(s)                               : 2 channels
Channel positions                        : Front: L R
Sampling rate                            : 48.0 KHz
Bit depth                                : 24 bits
Stream size                              : 62.0 MiB (3%)
Language                                 : English
Encoded date                             : UTC 2016-06-13 22:40:53

Download
***Hidden content cannot be quoted.***
 

Icaka03

Member
Registered
May 11, 2019
99
1
8
24
than
Selena Gomez - Kill Em' With Kindness (LPCM 24 Bits-Master-ProRes-1080p)



Genres: Pop
Released: Jan 06, 2016
℗ 2015 Interscope Records

Code:
Format                                   : QuickTime
Format/Info                              : Original Apple specifications
File size                                : 2.00 GiB
Duration                                 : 3mn 45s
Overall bit rate mode                    : Variable
Overall bit rate                         : 75.9 Mbps
Encoded date                             : UTC 2016-06-13 22:40:53
Tagged date                              : UTC 2016-06-13 22:40:53
Writing library                          : Apple QuickTime

Video
ID                                       : 1
Format                                   : ProRes
Format version                           : Version 0
Format profile                           : 422 LT
Codec ID                                 : apcs
Duration                                 : 3mn 45s
Bit rate mode                            : Variable
Bit rate                                 : 73.6 Mbps
Width                                    : 1 920 pixels
Height                                   : 1 080 pixels
Display aspect ratio                     : 16:9
Frame rate mode                          : Constant
Frame rate                               : 24.000 fps
Color space                              : YUV
Chroma subsampling                       : 4:2:2
Scan type                                : Progressive
Bits/(Pixel*Frame)                       : 1.480
Stream size                              : 1.94 GiB (97%)
Writing library                          : apt0
Language                                 : English
Encoded date                             : UTC 2016-06-13 22:40:53
Tagged date                              : UTC 2016-06-13 22:40:53
Color primaries                          : BT.709
Transfer characteristics                 : BT.709
Matrix coefficients                      : BT.709
matrix_coefficients_Original             : BT.709

Audio
ID                                       : 2
Format                                   : PCM
Format settings, Endianness              : Little
Format settings, Sign                    : Unsigned
Codec ID                                 : in24
Duration                                 : 3mn 45s
Bit rate mode                            : Constant
Bit rate                                 : 2 304 Kbps
Channel(s)                               : 2 channels
Channel positions                        : Front: L R
Sampling rate                            : 48.0 KHz
Bit depth                                : 24 bits
Stream size                              : 62.0 MiB (3%)
Language                                 : English
Encoded date                             : UTC 2016-06-13 22:40:53

Download
***Hidden content cannot be quoted.***
thanks
 

Raj

Member
Registered
Jul 3, 2019
67
0
6
29
Selena Gomez - Kill Em' With Kindness (LPCM 24 Bits-Master-ProRes-1080p)



Genres: Pop
Released: Jan 06, 2016
℗ 2015 Interscope Records

Code:
Format                                   : QuickTime
Format/Info                              : Original Apple specifications
File size                                : 2.00 GiB
Duration                                 : 3mn 45s
Overall bit rate mode                    : Variable
Overall bit rate                         : 75.9 Mbps
Encoded date                             : UTC 2016-06-13 22:40:53
Tagged date                              : UTC 2016-06-13 22:40:53
Writing library                          : Apple QuickTime

Video
ID                                       : 1
Format                                   : ProRes
Format version                           : Version 0
Format profile                           : 422 LT
Codec ID                                 : apcs
Duration                                 : 3mn 45s
Bit rate mode                            : Variable
Bit rate                                 : 73.6 Mbps
Width                                    : 1 920 pixels
Height                                   : 1 080 pixels
Display aspect ratio                     : 16:9
Frame rate mode                          : Constant
Frame rate                               : 24.000 fps
Color space                              : YUV
Chroma subsampling                       : 4:2:2
Scan type                                : Progressive
Bits/(Pixel*Frame)                       : 1.480
Stream size                              : 1.94 GiB (97%)
Writing library                          : apt0
Language                                 : English
Encoded date                             : UTC 2016-06-13 22:40:53
Tagged date                              : UTC 2016-06-13 22:40:53
Color primaries                          : BT.709
Transfer characteristics                 : BT.709
Matrix coefficients                      : BT.709
matrix_coefficients_Original             : BT.709

Audio
ID                                       : 2
Format                                   : PCM
Format settings, Endianness              : Little
Format settings, Sign                    : Unsigned
Codec ID                                 : in24
Duration                                 : 3mn 45s
Bit rate mode                            : Constant
Bit rate                                 : 2 304 Kbps
Channel(s)                               : 2 channels
Channel positions                        : Front: L R
Sampling rate                            : 48.0 KHz
Bit depth                                : 24 bits
Stream size                              : 62.0 MiB (3%)
Language                                 : English
Encoded date                             : UTC 2016-06-13 22:40:53

Download
***Hidden content cannot be quoted.***
Thanks
 

sasan

New Member
Registered
Aug 10, 2019
12
0
1
28
rfssar
Selena Gomez - Kill Em' With Kindness (LPCM 24 Bits-Master-ProRes-1080p)



Genres: Pop
Released: Jan 06, 2016
℗ 2015 Interscope Records

Code:
Format                                   : QuickTime
Format/Info                              : Original Apple specifications
File size                                : 2.00 GiB
Duration                                 : 3mn 45s
Overall bit rate mode                    : Variable
Overall bit rate                         : 75.9 Mbps
Encoded date                             : UTC 2016-06-13 22:40:53
Tagged date                              : UTC 2016-06-13 22:40:53
Writing library                          : Apple QuickTime

Video
ID                                       : 1
Format                                   : ProRes
Format version                           : Version 0
Format profile                           : 422 LT
Codec ID                                 : apcs
Duration                                 : 3mn 45s
Bit rate mode                            : Variable
Bit rate                                 : 73.6 Mbps
Width                                    : 1 920 pixels
Height                                   : 1 080 pixels
Display aspect ratio                     : 16:9
Frame rate mode                          : Constant
Frame rate                               : 24.000 fps
Color space                              : YUV
Chroma subsampling                       : 4:2:2
Scan type                                : Progressive
Bits/(Pixel*Frame)                       : 1.480
Stream size                              : 1.94 GiB (97%)
Writing library                          : apt0
Language                                 : English
Encoded date                             : UTC 2016-06-13 22:40:53
Tagged date                              : UTC 2016-06-13 22:40:53
Color primaries                          : BT.709
Transfer characteristics                 : BT.709
Matrix coefficients                      : BT.709
matrix_coefficients_Original             : BT.709

Audio
ID                                       : 2
Format                                   : PCM
Format settings, Endianness              : Little
Format settings, Sign                    : Unsigned
Codec ID                                 : in24
Duration                                 : 3mn 45s
Bit rate mode                            : Constant
Bit rate                                 : 2 304 Kbps
Channel(s)                               : 2 channels
Channel positions                        : Front: L R
Sampling rate                            : 48.0 KHz
Bit depth                                : 24 bits
Stream size                              : 62.0 MiB (3%)
Language                                 : English
Encoded date                             : UTC 2016-06-13 22:40:53

Download
***Hidden content cannot be quoted.***
Selena Gomez - Kill Em' With Kindness (LPCM 24 Bits-Master-ProRes-1080p)



Genres: Pop
Released: Jan 06, 2016
℗ 2015 Interscope Records

Code:
Format                                   : QuickTime
Format/Info                              : Original Apple specifications
File size                                : 2.00 GiB
Duration                                 : 3mn 45s
Overall bit rate mode                    : Variable
Overall bit rate                         : 75.9 Mbps
Encoded date                             : UTC 2016-06-13 22:40:53
Tagged date                              : UTC 2016-06-13 22:40:53
Writing library                          : Apple QuickTime

Video
ID                                       : 1
Format                                   : ProRes
Format version                           : Version 0
Format profile                           : 422 LT
Codec ID                                 : apcs
Duration                                 : 3mn 45s
Bit rate mode                            : Variable
Bit rate                                 : 73.6 Mbps
Width                                    : 1 920 pixels
Height                                   : 1 080 pixels
Display aspect ratio                     : 16:9
Frame rate mode                          : Constant
Frame rate                               : 24.000 fps
Color space                              : YUV
Chroma subsampling                       : 4:2:2
Scan type                                : Progressive
Bits/(Pixel*Frame)                       : 1.480
Stream size                              : 1.94 GiB (97%)
Writing library                          : apt0
Language                                 : English
Encoded date                             : UTC 2016-06-13 22:40:53
Tagged date                              : UTC 2016-06-13 22:40:53
Color primaries                          : BT.709
Transfer characteristics                 : BT.709
Matrix coefficients                      : BT.709
matrix_coefficients_Original             : BT.709

Audio
ID                                       : 2
Format                                   : PCM
Format settings, Endianness              : Little
Format settings, Sign                    : Unsigned
Codec ID                                 : in24
Duration                                 : 3mn 45s
Bit rate mode                            : Constant
Bit rate                                 : 2 304 Kbps
Channel(s)                               : 2 channels
Channel positions                        : Front: L R
Sampling rate                            : 48.0 KHz
Bit depth                                : 24 bits
Stream size                              : 62.0 MiB (3%)
Language                                 : English
Encoded date                             : UTC 2016-06-13 22:40:53

Download
***Hidden content cannot be quoted.***
tdxfbvz
 

ugo

Member
Registered
Jan 12, 2019
558
6
18
31
Selena Gomez - Kill Em' With Kindness (LPCM 24 Bits-Master-ProRes-1080p)



Genres: Pop
Released: Jan 06, 2016
℗ 2015 Interscope Records

Code:
Format                                   : QuickTime
Format/Info                              : Original Apple specifications
File size                                : 2.00 GiB
Duration                                 : 3mn 45s
Overall bit rate mode                    : Variable
Overall bit rate                         : 75.9 Mbps
Encoded date                             : UTC 2016-06-13 22:40:53
Tagged date                              : UTC 2016-06-13 22:40:53
Writing library                          : Apple QuickTime

Video
ID                                       : 1
Format                                   : ProRes
Format version                           : Version 0
Format profile                           : 422 LT
Codec ID                                 : apcs
Duration                                 : 3mn 45s
Bit rate mode                            : Variable
Bit rate                                 : 73.6 Mbps
Width                                    : 1 920 pixels
Height                                   : 1 080 pixels
Display aspect ratio                     : 16:9
Frame rate mode                          : Constant
Frame rate                               : 24.000 fps
Color space                              : YUV
Chroma subsampling                       : 4:2:2
Scan type                                : Progressive
Bits/(Pixel*Frame)                       : 1.480
Stream size                              : 1.94 GiB (97%)
Writing library                          : apt0
Language                                 : English
Encoded date                             : UTC 2016-06-13 22:40:53
Tagged date                              : UTC 2016-06-13 22:40:53
Color primaries                          : BT.709
Transfer characteristics                 : BT.709
Matrix coefficients                      : BT.709
matrix_coefficients_Original             : BT.709

Audio
ID                                       : 2
Format                                   : PCM
Format settings, Endianness              : Little
Format settings, Sign                    : Unsigned
Codec ID                                 : in24
Duration                                 : 3mn 45s
Bit rate mode                            : Constant
Bit rate                                 : 2 304 Kbps
Channel(s)                               : 2 channels
Channel positions                        : Front: L R
Sampling rate                            : 48.0 KHz
Bit depth                                : 24 bits
Stream size                              : 62.0 MiB (3%)
Language                                 : English
Encoded date                             : UTC 2016-06-13 22:40:53

Download
***Hidden content cannot be quoted.***
Thanks