WEBRIP FEED UHD 4K Shakira & Jennifer Lopez - Super Bowl LIV Halftime Show 2020 (FEED-2160p) + (WebRip-1080p)

alpainsponge

New Member
Registered
Feb 3, 2020
18
1
1
57
Shakira & Jennifer Lopez - Super Bowl LIV Halftime Show 2020 (FEED-2160p) + (WebRip-1080p)


Setlist:

  • Shakira

  1. Intro (Contains elements of “La La La”)
    She Wolf
    Empire
    Ojos así
    Whenever, Wherever
    I Like It (Cardi B cover) (with Bad Bunny)
    Chantaje (with Bad Bunny)
    Hips Don't Lie
    Waka Waka (This Time for Africa)

  • Jennifer Lopez

  1. Jenny From the Block
    Ain't It Funny
    Get Right
    Waiting for Tonight
    Booty / Love Don't Cost a Thing (with J Balvin)
    Mi gente (J Balvin & Willy William cover) (with J Balvin)
    On the Floor
    Let's Get Loud (with Shakira)
Code:
Format                                   : Matroska
File size                                : 2.15 GiB
Duration                                 : 14 min 40 s
Overall bit rate                         : 21.0 Mb/s

Video
Format                                   : HEVC
Format profile                           : Main 10@L5.1@Main
Bit rate                                 : 20.6 Mb/s
Width                                    : 3 840 pixels
Height                                   : 2 160 pixels
Display aspect ratio                     : 16:9
Frame rate                               : 59.940 (60000/1001) FPS
Chroma subsampling                       : 4:2:0 (Type 2)
Bit depth                                : 10 bits
Bits/(Pixel*Frame)                       : 0.041

Audio
Format                                   : AC-3
Bit rate                                 : 384 kb/s
Channel(s)                               : 6 channels
Channel layout                           : L R C LFE Ls Rs
Sampling rate                            : 48.0 kHz
Frame rate                               : 31.250 FPS (1536 SPF)
Bit depth                                : 16 bits
Compression mode                         : Lossy
Stream size                              : 40.3 MiB (2%)
Language                                 : English

Code:
Format                                   : MPEG-4
File size                                : 648 MiB
Duration                                 : 14 min 24 s
Overall bit rate                         : 6 291 kb/s

Video
Format                                   : AVC
Format profile                           : High@L4.2
Format settings                          : CABAC / 3 Ref Frames
Bit rate                                 : 6 148 kb/s
Width                                    : 1 920 pixels
Height                                   : 1 080 pixels
Display aspect ratio                     : 16:9
Frame rate                               : 59.940 (59940/1000) FPS
Minimum frame rate                       : 59.920 FPS
Maximum frame rate                       : 90 000.000 FPS
Chroma subsampling                       : 4:2:0
Bit depth                                : 8 bits
Bits/(Pixel*Frame)                       : 0.049

Audio
Format                                   : AAC LC
Bit rate                                 : 128 kb/s
Channel(s)                               : 2 channels
Channel layout                           : L R
Sampling rate                            : 44.1 kHz
Frame rate                               : 43.066 FPS (1024 SPF)
Compression mode                         : Lossy
Download
***Hidden content cannot be quoted.***
Thank you
 

MOAJOBEDJARAMIL

New Member
Registered
May 6, 2020
3
0
1
28
Shakira & Jennifer Lopez - Super Bowl LIV Halftime Show 2020 (FEED-2160p) + (WebRip-1080p)


Setlist:

  • Shakira

  1. Intro (Contains elements of “La La La”)
    She Wolf
    Empire
    Ojos así
    Whenever, Wherever
    I Like It (Cardi B cover) (with Bad Bunny)
    Chantaje (with Bad Bunny)
    Hips Don't Lie
    Waka Waka (This Time for Africa)

  • Jennifer Lopez

  1. Jenny From the Block
    Ain't It Funny
    Get Right
    Waiting for Tonight
    Booty / Love Don't Cost a Thing (with J Balvin)
    Mi gente (J Balvin & Willy William cover) (with J Balvin)
    On the Floor
    Let's Get Loud (with Shakira)
Code:
Format                                   : Matroska
File size                                : 2.15 GiB
Duration                                 : 14 min 40 s
Overall bit rate                         : 21.0 Mb/s

Video
Format                                   : HEVC
Format profile                           : Main 10@L5.1@Main
Bit rate                                 : 20.6 Mb/s
Width                                    : 3 840 pixels
Height                                   : 2 160 pixels
Display aspect ratio                     : 16:9
Frame rate                               : 59.940 (60000/1001) FPS
Chroma subsampling                       : 4:2:0 (Type 2)
Bit depth                                : 10 bits
Bits/(Pixel*Frame)                       : 0.041

Audio
Format                                   : AC-3
Bit rate                                 : 384 kb/s
Channel(s)                               : 6 channels
Channel layout                           : L R C LFE Ls Rs
Sampling rate                            : 48.0 kHz
Frame rate                               : 31.250 FPS (1536 SPF)
Bit depth                                : 16 bits
Compression mode                         : Lossy
Stream size                              : 40.3 MiB (2%)
Language                                 : English

Code:
Format                                   : MPEG-4
File size                                : 648 MiB
Duration                                 : 14 min 24 s
Overall bit rate                         : 6 291 kb/s

Video
Format                                   : AVC
Format profile                           : High@L4.2
Format settings                          : CABAC / 3 Ref Frames
Bit rate                                 : 6 148 kb/s
Width                                    : 1 920 pixels
Height                                   : 1 080 pixels
Display aspect ratio                     : 16:9
Frame rate                               : 59.940 (59940/1000) FPS
Minimum frame rate                       : 59.920 FPS
Maximum frame rate                       : 90 000.000 FPS
Chroma subsampling                       : 4:2:0
Bit depth                                : 8 bits
Bits/(Pixel*Frame)                       : 0.049

Audio
Format                                   : AAC LC
Bit rate                                 : 128 kb/s
Channel(s)                               : 2 channels
Channel layout                           : L R
Sampling rate                            : 44.1 kHz
Frame rate                               : 43.066 FPS (1024 SPF)
Compression mode                         : Lossy
Download
***Hidden content cannot be quoted.***
Thanks
 

Choppwaters

New Member
Registered
Sep 16, 2019
13
0
1
26
thank you so much for posting hahah lol yeah i think this is 35 characters now hopefully lol.
 

nti

New Member
Registered
Jun 6, 2020
6
0
1
20
i've been looking for a 4K one for ages! much love.
 

ddiuit

New Member
Registered
Jun 17, 2020
1
0
1
28
both of them were great, they did it awesome, Shakira and JLo did the best
 

blumen

Member
Registered
Sep 1, 2018
73
1
8
44
Shakira & Jennifer Lopez - Super Bowl LIV Halftime Show 2020 (FEED-2160p) + (WebRip-1080p)