HDTV Shakira - She Wolf (Saturdays Night Live 2009) [HDTV-1080i]

NCURBAN

Well-Known Member
Administrative
May 25, 2016
3,360
4,162
113
Shakira - She Wolf (Saturdays Night Live 2009) [HDTV-1080i]



Gener: Pop
At: Saturdays Night Live
Date: 17/10/2009

Code:
Format                                   : MPEG-TS
File size                                : 416 MiB
Duration                                 : 3 min 31 s
Overall bit rate mode                    : Variable
Overall bit rate                         : 16.5 Mb/s
Law rating                               : TV-14 (DL)

Video
ID                                       : 6491 (0x195B)
Menu ID                                  : 1 (0x1)
Format                                   : MPEG Video
Format version                           : Version 2
Format profile                           : Main@High
Format settings, BVOP                    : Yes
Format settings, Matrix                  : Custom
Format settings, GOP                     : M=3, N=15
Format settings, picture structure       : Frame
Codec ID                                 : 2
Duration                                 : 3 min 31 s
Bit rate mode                            : Variable
Bit rate                                 : 15.3 Mb/s
Maximum bit rate                         : 16.0 Mb/s
Width                                    : 1 920 pixels
Height                                   : 1 080 pixels
Display aspect ratio                     : 16:9
Frame rate                               : 29.970 (30000/1001) FPS
Color space                              : YUV
Chroma subsampling                       : 4:2:0
Bit depth                                : 8 bits
Scan type                                : Interlaced
Scan order                               : Top Field First
Compression mode                         : Lossy
Bits/(Pixel*Frame)                       : 0.246
Time code of first frame                 : 00:00:00;00
Time code source                         : Group of pictures header
GOP, Open/Closed                         : Open
GOP, Open/Closed of first frame          : Closed
Stream size                              : 385 MiB (93%)

Audio
ID                                       : 6492 (0x195C)
Menu ID                                  : 1 (0x1)
Format                                   : AC-3
Format/Info                              : Audio Coding 3
Mode extension                           : CM (complete main)
Format settings, Endianness              : Big
Codec ID                                 : 129
Duration                                 : 3 min 31 s
Bit rate mode                            : Constant
Bit rate                                 : 384 kb/s
Channel(s)                               : 2 channels
Channel positions                        : Front: L R
Sampling rate                            : 48.0 kHz
Frame rate                               : 31.250 FPS (1536 spf)
Bit depth                                : 16 bits
Compression mode                         : Lossy
Delay relative to video                  : 21 ms
Stream size                              : 9.67 MiB (2%)
Language                                 : English

Download
You must reply before you can see the hidden data contained here.