FEED SIA - Live Apple iPhone 7 Keynote, San Francisco, CA, 2016 BACKHAUL [FEED-1080i]-ALANiS

NCURBAN

Well-Known Member
Administrative
May 25, 2016
3,347
3,635
113
SIA - Live Apple iPhone 7 Keynote, San Francisco, CA, 2016 BACKHAUL [FEED-1080i]-ALANiS



Code:
Format                                   : MPEG-TS
File size                                : 2.33 GiB
Duration                                 : 11mn 30s
Overall bit rate mode                    : Variable
Overall bit rate                         : 29.0 Mbps

Video
ID                                       : 308 (0x134)
Menu ID                                  : 1 (0x1)
Format                                   : MPEG Video
Format version                           : Version 2
Format profile                           : Main@High
Format settings, BVOP                    : Yes
Format settings, Matrix                  : Default
Format settings, picture structure       : Frame
Codec ID                                 : 2
Duration                                 : 11mn 30s
Bit rate mode                            : Variable
Bit rate                                 : 27.2 Mbps
Maximum bit rate                         : 28.6 Mbps
Width                                    : 1 920 pixels
Height                                   : 1 080 pixels
Display aspect ratio                     : 16:9
Frame rate                               : 29.970 fps
Color space                              : YUV
Chroma subsampling                       : 4:2:0
Bit depth                                : 8 bits
Scan type                                : Interlaced
Scan order                               : Top Field First
Compression mode                         : Lossy
Bits/(Pixel*Frame)                       : 0.438
Time code of first frame                 : 00:00:00;00
Time code source                         : Group of pictures header
Stream size                              : 2.19 GiB (94%)

Audio
ID                                       : 256 (0x100)
Menu ID                                  : 1 (0x1)
Format                                   : MPEG Audio
Format version                           : Version 1
Format profile                           : Layer 2
Codec ID                                 : 3
Duration                                 : 11mn 30s
Bit rate mode                            : Constant
Bit rate                                 : 384 Kbps
Channel(s)                               : 2 channels
Sampling rate                            : 48.0 KHz
Compression mode                         : Lossy
Delay relative to video                  : 10ms
Stream size                              : 31.6 MiB (1%)
Language                                 : English

Download
You must reply before you can see the hidden data contained here.