FEED Sophie Ellis-Bextor - You Can't Hurry Love (World Cup 66 2016) [FEED-1080]-HDMania

NCURBAN

Well-Known Member
Administrative
May 25, 2016
3,360
4,206
113
Sophie Ellis-Bextor - You Can't Hurry Love (World Cup 66 2016) [FEED-1080]-HDMania



Code:
Format                                   : MPEG-TS
File size                                : 490 MiB
Duration                                 : 3mn 6s
Overall bit rate mode                    : Variable
Overall bit rate                         : 22.1 Mbps

Video
ID                                       : 308 (0x134)
Menu ID                                  : 1 (0x1)
Format                                   : MPEG Video
Format version                           : Version 2
Format profile                           : Main@High
Format settings, BVOP                    : Yes
Format settings, Matrix                  : Default
Format settings, picture structure       : Frame
Codec ID                                 : 2
Duration                                 : 3mn 5s
Bit rate mode                            : Variable
Bit rate                                 : 20.3 Mbps
Maximum bit rate                         : 21.4 Mbps
Width                                    : 1 920 pixels
Height                                   : 1 080 pixels
Display aspect ratio                     : 16:9
Active Format Description                : Full frame 16:9 image
Frame rate                               : 25.000 fps
Color space                              : YUV
Chroma subsampling                       : 4:2:0
Bit depth                                : 8 bits
Scan type                                : Interlaced
Scan order                               : Top Field First
Compression mode                         : Lossy
Bits/(Pixel*Frame)                       : 0.392
Stream size                              : 450 MiB (92%)

Audio
ID                                       : 256 (0x100)
Menu ID                                  : 1 (0x1)
Format                                   : AC-3
Format/Info                              : Audio Coding 3
Mode extension                           : CM (complete main)
Format settings, Endianness              : Big
Codec ID                                 : 6
Duration                                 : 3mn 5s
Bit rate mode                            : Constant
Bit rate                                 : 640 Kbps
Channel(s)                               : 6 channels
Channel positions                        : Front: L C R, Side: L R, LFE
Sampling rate                            : 48.0 KHz
Compression mode                         : Lossy
Delay relative to video                  : 131ms
Stream size                              : 14.2 MiB (3%)
Language                                 : English

Menu
ID                                       : 32 (0x20)
Menu ID                                  : 1 (0x1)
Duration                                 : 3mn 6s
List                                     : 308 (0x134) (MPEG Video) / 256 (0x100) (AC-3, English)
Language                                 :  / English
Maximum bit rate                         : 200000000

Download
[HIDE-REPLY]MEGA[/HIDE-REPLY]