HDTV Taylor Swift - E! Entertainment Specials 2010 (HDTV-1080i)-TrollHD

NCURBAN

Well-Known Member
Administrative
May 25, 2016
3,347
3,595
113
Taylor Swift - E! Entertainment Specials 2010 (HDTV-1080i)-TrollHD


Original network: E! Entertainment Television
Gener: Documentary
Star: Taylor Swift
Date: 2010
Code:
Format                                   : MPEG-TS
File size                                : 3.90 GiB
Duration                                 : 44 min 27 s
Overall bit rate mode                    : Variable
Overall bit rate                         : 12.6 Mb/s
Law rating                               : TV-PG (D)

Video
ID                                       : 224 (0xE0)
Menu ID                                  : 1 (0x1)
Format                                   : MPEG Video
Format version                           : Version 2
Format profile                           : Main@High
Format settings, BVOP                    : Yes
Format settings, Matrix                  : Custom
Format settings, GOP                     : Variable
Format settings, picture structure       : Frame
Codec ID                                 : 2
Duration                                 : 44 min 27 s
Bit rate mode                            : Variable
Bit rate                                 : 11.6 Mb/s
Maximum bit rate                         : 20.0 Mb/s
Width                                    : 1 920 pixels
Height                                   : 1 080 pixels
Display aspect ratio                     : 16:9
Frame rate                               : 29.970 (30000/1001) FPS
Color space                              : YUV
Chroma subsampling                       : 4:2:0
Bit depth                                : 8 bits
Scan type                                : Interlaced
Scan order                               : Top Field First
Compression mode                         : Lossy
Bits/(Pixel*Frame)                       : 0.186
Time code of first frame                 : 00:00:00;00
Time code source                         : Group of pictures header
GOP, Open/Closed                         : Open
GOP, Open/Closed of first frame          : Closed
Stream size                              : 3.59 GiB (92%)

Audio
ID                                       : 128 (0x80)
Menu ID                                  : 1 (0x1)
Format                                   : AC-3
Format/Info                              : Audio Coding 3
Mode extension                           : CM (complete main)
Format settings, Endianness              : Big
Codec ID                                 : 129
Duration                                 : 44 min 27 s
Bit rate mode                            : Constant
Bit rate                                 : 384 kb/s
Channel(s)                               : 2 channels
Channel positions                        : Front: L R
Sampling rate                            : 48.0 kHz
Frame rate                               : 31.250 FPS (1536 spf)
Bit depth                                : 16 bits
Compression mode                         : Lossy
Stream size                              : 122 MiB (3%)
Language                                 : English
Download
[HIDE-REPLY]MEGA[/HIDE-REPLY]
 
Last edited: