BLU-RAY Taylor Swift feat. Kendrick Lamar - Bad Blood (BluRay-1080p)

NCURBAN

Well-Known Member
Administrative
May 25, 2016
3,347
3,630
113
Taylor Swift feat. Kendrick Lamar - Bad Blood (BluRay-1080p)


Gener: Pop
Released: May 17, 2015
Copyright: (C) 2015 Big Machine Records, LLC.
Code:
Format                                   : MPEG-TS
File size                                : 781 MiB
Duration                                 : 3 min 20 s
Overall bit rate mode                    : Variable
Overall bit rate                         : 32.6 Mb/s
Maximum Overall bit rate                 : 35.5 Mb/s

Video
ID                                       : 4113 (0x1011)
Menu ID                                  : 1 (0x1)
Format                                   : AVC
Format/Info                              : Advanced Video Codec
Format profile                           : High@L4.1
Format settings, CABAC                   : Yes
Format settings, ReFrames                : 4 frames
Codec ID                                 : 27
Duration                                 : 3 min 20 s
Bit rate mode                            : Variable
Bit rate                                 : 30.6 Mb/s
Maximum bit rate                         : 40.0 Mb/s
Width                                    : 1 920 pixels
Height                                   : 816 pixels
Display aspect ratio                     : 2.35:1
Frame rate                               : 60.000 FPS
Color space                              : YUV
Chroma subsampling                       : 4:2:0
Bit depth                                : 8 bits
Scan type                                : Progressive
Bits/(Pixel*Frame)                       : 0.325
Stream size                              : 729 MiB (93%)

Audio
ID                                       : 4352 (0x1100)
Menu ID                                  : 1 (0x1)
Format                                   : AC-3
Format/Info                              : Audio Coding 3
Mode extension                           : CM (complete main)
Format settings, Endianness              : Big
Codec ID                                 : 129
Duration                                 : 3 min 20 s
Bit rate mode                            : Constant
Bit rate                                 : 448 kb/s
Channel(s)                               : 2 channels
Channel positions                        : Front: L R
Sampling rate                            : 48.0 kHz
Frame rate                               : 31.250 FPS (1536 spf)
Bit depth                                : 16 bits
Compression mode                         : Lossy
Delay relative to video                  : -17 ms
Stream size                              : 10.7 MiB (1%)
Download
[HIDE-REPLY]MEGA[/HIDE-REPLY]
 
  • Like
Reactions: John Deo

plank3412

New Member
Registered
Aug 16, 2018
5
0
1
30
hey OP, this video is missing the first 34 seconds of the original that is on YouTube. The one posted here starts at the scene linked in the youtube vid time stamp
 

KDHN

New Member
Registered
Dec 1, 2018
12
0
1
39
Taylor Swift feat. Kendrick Lamar - Bad Blood (BluRay-1080p)



Code:
Format                                   : MPEG-TS
File size                                : 781 MiB
Duration                                 : 3 min 20 s
Overall bit rate mode                    : Variable
Overall bit rate                         : 32.6 Mb/s
Maximum Overall bit rate                 : 35.5 Mb/s

Video
ID                                       : 4113 (0x1011)
Menu ID                                  : 1 (0x1)
Format                                   : AVC
Format/Info                              : Advanced Video Codec
Format profile                           : High@L4.1
Format settings, CABAC                   : Yes
Format settings, ReFrames                : 4 frames
Codec ID                                 : 27
Duration                                 : 3 min 20 s
Bit rate mode                            : Variable
Bit rate                                 : 30.6 Mb/s
Maximum bit rate                         : 40.0 Mb/s
Width                                    : 1 920 pixels
Height                                   : 816 pixels
Display aspect ratio                     : 2.35:1
Frame rate                               : 60.000 FPS
Color space                              : YUV
Chroma subsampling                       : 4:2:0
Bit depth                                : 8 bits
Scan type                                : Progressive
Bits/(Pixel*Frame)                       : 0.325
Stream size                              : 729 MiB (93%)

Audio
ID                                       : 4352 (0x1100)
Menu ID                                  : 1 (0x1)
Format                                   : AC-3
Format/Info                              : Audio Coding 3
Mode extension                           : CM (complete main)
Format settings, Endianness              : Big
Codec ID                                 : 129
Duration                                 : 3 min 20 s
Bit rate mode                            : Constant
Bit rate                                 : 448 kb/s
Channel(s)                               : 2 channels
Channel positions                        : Front: L R
Sampling rate                            : 48.0 kHz
Frame rate                               : 31.250 FPS (1536 spf)
Bit depth                                : 16 bits
Compression mode                         : Lossy
Delay relative to video                  : -17 ms
Stream size                              : 10.7 MiB (1%)
Download
***Hidden content cannot be quoted.***
thanks a lot
 

Sidratul Islam

New Member
Registered
Dec 20, 2018
4
0
1
23
Taylor Swift feat. Kendrick Lamar - Bad Blood (BluRay-1080p)



Code:
Format                                   : MPEG-TS
File size                                : 781 MiB
Duration                                 : 3 min 20 s
Overall bit rate mode                    : Variable
Overall bit rate                         : 32.6 Mb/s
Maximum Overall bit rate                 : 35.5 Mb/s

Video
ID                                       : 4113 (0x1011)
Menu ID                                  : 1 (0x1)
Format                                   : AVC
Format/Info                              : Advanced Video Codec
Format profile                           : High@L4.1
Format settings, CABAC                   : Yes
Format settings, ReFrames                : 4 frames
Codec ID                                 : 27
Duration                                 : 3 min 20 s
Bit rate mode                            : Variable
Bit rate                                 : 30.6 Mb/s
Maximum bit rate                         : 40.0 Mb/s
Width                                    : 1 920 pixels
Height                                   : 816 pixels
Display aspect ratio                     : 2.35:1
Frame rate                               : 60.000 FPS
Color space                              : YUV
Chroma subsampling                       : 4:2:0
Bit depth                                : 8 bits
Scan type                                : Progressive
Bits/(Pixel*Frame)                       : 0.325
Stream size                              : 729 MiB (93%)

Audio
ID                                       : 4352 (0x1100)
Menu ID                                  : 1 (0x1)
Format                                   : AC-3
Format/Info                              : Audio Coding 3
Mode extension                           : CM (complete main)
Format settings, Endianness              : Big
Codec ID                                 : 129
Duration                                 : 3 min 20 s
Bit rate mode                            : Constant
Bit rate                                 : 448 kb/s
Channel(s)                               : 2 channels
Channel positions                        : Front: L R
Sampling rate                            : 48.0 kHz
Frame rate                               : 31.250 FPS (1536 spf)
Bit depth                                : 16 bits
Compression mode                         : Lossy
Delay relative to video                  : -17 ms
Stream size                              : 10.7 MiB (1%)
Download
***Hidden content cannot be quoted.***
ok
 

miamia

Member
Registered
Jan 23, 2019
54
0
6
19
Taylor Swift feat. Kendrick Lamar - Bad Blood (BluRay-1080p)



Code:
Format                                   : MPEG-TS
File size                                : 781 MiB
Duration                                 : 3 min 20 s
Overall bit rate mode                    : Variable
Overall bit rate                         : 32.6 Mb/s
Maximum Overall bit rate                 : 35.5 Mb/s

Video
ID                                       : 4113 (0x1011)
Menu ID                                  : 1 (0x1)
Format                                   : AVC
Format/Info                              : Advanced Video Codec
Format profile                           : High@L4.1
Format settings, CABAC                   : Yes
Format settings, ReFrames                : 4 frames
Codec ID                                 : 27
Duration                                 : 3 min 20 s
Bit rate mode                            : Variable
Bit rate                                 : 30.6 Mb/s
Maximum bit rate                         : 40.0 Mb/s
Width                                    : 1 920 pixels
Height                                   : 816 pixels
Display aspect ratio                     : 2.35:1
Frame rate                               : 60.000 FPS
Color space                              : YUV
Chroma subsampling                       : 4:2:0
Bit depth                                : 8 bits
Scan type                                : Progressive
Bits/(Pixel*Frame)                       : 0.325
Stream size                              : 729 MiB (93%)

Audio
ID                                       : 4352 (0x1100)
Menu ID                                  : 1 (0x1)
Format                                   : AC-3
Format/Info                              : Audio Coding 3
Mode extension                           : CM (complete main)
Format settings, Endianness              : Big
Codec ID                                 : 129
Duration                                 : 3 min 20 s
Bit rate mode                            : Constant
Bit rate                                 : 448 kb/s
Channel(s)                               : 2 channels
Channel positions                        : Front: L R
Sampling rate                            : 48.0 kHz
Frame rate                               : 31.250 FPS (1536 spf)
Bit depth                                : 16 bits
Compression mode                         : Lossy
Delay relative to video                  : -17 ms
Stream size                              : 10.7 MiB (1%)
Download
***Hidden content cannot be quoted.***
thanks