HDTV The Chainsmokers - Lollapalooza Brazil 2017 (1080i-HDTV)-shipahead

NCURBAN

Well-Known Member
Administrative
May 25, 2016
3,360
4,183
113
The Chainsmokers - Lollapalooza Brazil 2017 (1080i-HDTV)-shipahead


Geners: Dance, Electronic
Festival: Lollapalooza Brazil
Live At: Autódromo de Interlagos, São Paulo, Brazil
Date: March 25, 2017
Setlist:
Soon ...
Code:
Format                                   : MPEG-TS
File size                                : 4.45 GiB
Duration                                 : 1 h 14 min
Overall bit rate mode                    : Variable
Overall bit rate                         : 8 545 kb/s

Video
ID                                       : 420 (0x1A4)
Menu ID                                  : 1 (0x1)
Format                                   : AVC
Format/Info                              : Advanced Video Codec
Format profile                           : High@L4
Format settings, CABAC                   : Yes
Format settings, ReFrames                : 4 frames
Format settings, GOP                     : M=4, N=32
Codec ID                                 : 27
Duration                                 : 1 h 14 min
Bit rate                                 : 7 865 kb/s
Width                                    : 1 920 pixels
Height                                   : 1 080 pixels
Display aspect ratio                     : 16:9
Frame rate                               : 29.970 (30000/1001) FPS
Color space                              : YUV
Chroma subsampling                       : 4:2:0
Bit depth                                : 8 bits
Scan type                                : MBAFF
Scan type, store method                  : Interleaved fields
Scan order                               : Top Field First
Bits/(Pixel*Frame)                       : 0.127
Stream size                              : 4.10 GiB (92%)

Audio
ID                                       : 422 (0x1A6)
Menu ID                                  : 1 (0x1)
Format                                   : MPEG Audio
Format version                           : Version 1
Format profile                           : Layer 2
Mode                                     : Joint stereo
Mode extension                           : Intensity Stereo + MS Stereo
Codec ID                                 : 3
Duration                                 : 1 h 14 min
Bit rate mode                            : Constant
Bit rate                                 : 256 kb/s
Channel(s)                               : 2 channels
Sampling rate                            : 48.0 kHz
Compression mode                         : Lossy
Delay relative to video                  : -100 ms
Stream size                              : 137 MiB (3%)
Language                                 : English
Download
You must reply before you can see the hidden data contained here.