HDTV The Weeknd - Lollapalooza Brazil 2017 (HDTV-1080i)-HDMania

NCURBAN

Well-Known Member
Administrative
May 25, 2016
3,347
3,595
113
The Weeknd - Lollapalooza Brazil 2017 (HDTV-1080i)-HDMania


Gener: R&B/Soul
Festival: Lollapalooza Brazil
Live At: Autódromo de Interlagos, São Paulo, Brazil
Date: March 26, 2017
Setlist:
  1. Starboy
  2. False Alarm
  3. Glass Table Girls
  4. Party Monster
  5. Reminder
  6. Often
  7. Acquainted
  8. Rockin'
  9. In the Night
  10. Earned It
  11. Wicked Games
  12. Ordinary Life / Stargirl Interlude
  13. Six Feet Under
  14. Low Life / Might Not
  15. The Morning
  16. Sidewalks
  17. Secrets / Can't Feel My Face
  18. I Feel It Coming
  19. The Hills
Code:
Format                                   : MPEG-TS
File size                                : 5.11 GiB
Duration                                 : 1 h 15 min
Overall bit rate mode                    : Variable
Overall bit rate                         : 9 704 kb/s

Video
ID                                       : 1328 (0x530)
Menu ID                                  : 1336 (0x538)
Format                                   : AVC
Format/Info                              : Advanced Video Codec
Format profile                           : High@L4
Format settings, CABAC                   : Yes
Format settings, ReFrames                : 4 frames
Codec ID                                 : 27
Duration                                 : 1 h 15 min
Bit rate                                 : 8 837 kb/s
Width                                    : 1 920 pixels
Height                                   : 1 080 pixels
Display aspect ratio                     : 16:9
Frame rate                               : 29.970 (30000/1001) FPS
Color space                              : YUV
Chroma subsampling                       : 4:2:0
Bit depth                                : 8 bits
Scan type                                : MBAFF
Scan type, store method                  : Interleaved fields
Scan order                               : Top Field First
Bits/(Pixel*Frame)                       : 0.142
Stream size                              : 4.65 GiB (91%)

Audio
ID                                       : 1329 (0x531)
Menu ID                                  : 1336 (0x538)
Format                                   : AC-3
Format/Info                              : Audio Coding 3
Format settings, Endianness              : Big
Codec ID                                 : 129
Duration                                 : 1 h 15 min
Bit rate mode                            : Constant
Bit rate                                 : 384 kb/s
Channel(s)                               : 6 channels
Channel positions                        : Front: L C R, Side: L R, LFE
Sampling rate                            : 48.0 kHz
Frame rate                               : 31.250 FPS (1536 spf)
Bit depth                                : 16 bits
Compression mode                         : Lossy
Stream size                              : 207 MiB (4%)
Language                                 : English
Service kind                             : Complete Main
Download
You must reply before you can see the hidden data contained here.
 

Shubham Jinde

New Member
Registered
Apr 5, 2018
1
0
1
20
wow
The Weeknd - Lollapalooza Brazil 2017 (HDTV-1080i)-HDMania


Setlist:

  1. Starboy
    False Alarm
    Glass Table Girls
    Party Monster
    Reminder
    Often
    Acquainted
    Rockin'
    In the Night
    Earned It
    Wicked Games
    Ordinary Life / Stargirl Interlude
    Six Feet Under
    Low Life / Might Not
    The Morning
    Sidewalks
    Secrets / Can't Feel My Face
    I Feel It Coming
    The Hills
Code:
Format                                   : MPEG-TS
File size                                : 5.11 GiB
Duration                                 : 1 h 15 min
Overall bit rate mode                    : Variable
Overall bit rate                         : 9 704 kb/s

Video
ID                                       : 1328 (0x530)
Menu ID                                  : 1336 (0x538)
Format                                   : AVC
Format/Info                              : Advanced Video Codec
Format profile                           : High@L4
Format settings, CABAC                   : Yes
Format settings, ReFrames                : 4 frames
Codec ID                                 : 27
Duration                                 : 1 h 15 min
Bit rate                                 : 8 837 kb/s
Width                                    : 1 920 pixels
Height                                   : 1 080 pixels
Display aspect ratio                     : 16:9
Frame rate                               : 29.970 (30000/1001) FPS
Color space                              : YUV
Chroma subsampling                       : 4:2:0
Bit depth                                : 8 bits
Scan type                                : MBAFF
Scan type, store method                  : Interleaved fields
Scan order                               : Top Field First
Bits/(Pixel*Frame)                       : 0.142
Stream size                              : 4.65 GiB (91%)

Audio
ID                                       : 1329 (0x531)
Menu ID                                  : 1336 (0x538)
Format                                   : AC-3
Format/Info                              : Audio Coding 3
Format settings, Endianness              : Big
Codec ID                                 : 129
Duration                                 : 1 h 15 min
Bit rate mode                            : Constant
Bit rate                                 : 384 kb/s
Channel(s)                               : 6 channels
Channel positions                        : Front: L C R, Side: L R, LFE
Sampling rate                            : 48.0 kHz
Frame rate                               : 31.250 FPS (1536 spf)
Bit depth                                : 16 bits
Compression mode                         : Lossy
Stream size                              : 207 MiB (4%)
Language                                 : English
Service kind                             : Complete Main
Download
***Hidden content cannot be quoted.***
 

KDUzinho09

New Member
Registered
Aug 3, 2018
1
0
1
28
The Weeknd - Lollapalooza Brazil 2017 (HDTV-1080i)-HDMania


Setlist:

  1. Starboy
    False Alarm
    Glass Table Girls
    Party Monster
    Reminder
    Often
    Acquainted
    Rockin'
    In the Night
    Earned It
    Wicked Games
    Ordinary Life / Stargirl Interlude
    Six Feet Under
    Low Life / Might Not
    The Morning
    Sidewalks
    Secrets / Can't Feel My Face
    I Feel It Coming
    The Hills
Code:
Format                                   : MPEG-TS
File size                                : 5.11 GiB
Duration                                 : 1 h 15 min
Overall bit rate mode                    : Variable
Overall bit rate                         : 9 704 kb/s

Video
ID                                       : 1328 (0x530)
Menu ID                                  : 1336 (0x538)
Format                                   : AVC
Format/Info                              : Advanced Video Codec
Format profile                           : High@L4
Format settings, CABAC                   : Yes
Format settings, ReFrames                : 4 frames
Codec ID                                 : 27
Duration                                 : 1 h 15 min
Bit rate                                 : 8 837 kb/s
Width                                    : 1 920 pixels
Height                                   : 1 080 pixels
Display aspect ratio                     : 16:9
Frame rate                               : 29.970 (30000/1001) FPS
Color space                              : YUV
Chroma subsampling                       : 4:2:0
Bit depth                                : 8 bits
Scan type                                : MBAFF
Scan type, store method                  : Interleaved fields
Scan order                               : Top Field First
Bits/(Pixel*Frame)                       : 0.142
Stream size                              : 4.65 GiB (91%)

Audio
ID                                       : 1329 (0x531)
Menu ID                                  : 1336 (0x538)
Format                                   : AC-3
Format/Info                              : Audio Coding 3
Format settings, Endianness              : Big
Codec ID                                 : 129
Duration                                 : 1 h 15 min
Bit rate mode                            : Constant
Bit rate                                 : 384 kb/s
Channel(s)                               : 6 channels
Channel positions                        : Front: L C R, Side: L R, LFE
Sampling rate                            : 48.0 kHz
Frame rate                               : 31.250 FPS (1536 spf)
Bit depth                                : 16 bits
Compression mode                         : Lossy
Stream size                              : 207 MiB (4%)
Language                                 : English
Service kind                             : Complete Main
Download
***Hidden content cannot be quoted.***
Thank you very much :)
 

paraga

New Member
Registered
Aug 4, 2019
25
0
1
23
The Weeknd - Lollapalooza Brazil 2017 (HDTV-1080i)-HDMania


Setlist:

  1. Starboy
    False Alarm
    Glass Table Girls
    Party Monster
    Reminder
    Often
    Acquainted
    Rockin'
    In the Night
    Earned It
    Wicked Games
    Ordinary Life / Stargirl Interlude
    Six Feet Under
    Low Life / Might Not
    The Morning
    Sidewalks
    Secrets / Can't Feel My Face
    I Feel It Coming
    The Hills
Code:
Format                                   : MPEG-TS
File size                                : 5.11 GiB
Duration                                 : 1 h 15 min
Overall bit rate mode                    : Variable
Overall bit rate                         : 9 704 kb/s

Video
ID                                       : 1328 (0x530)
Menu ID                                  : 1336 (0x538)
Format                                   : AVC
Format/Info                              : Advanced Video Codec
Format profile                           : High@L4
Format settings, CABAC                   : Yes
Format settings, ReFrames                : 4 frames
Codec ID                                 : 27
Duration                                 : 1 h 15 min
Bit rate                                 : 8 837 kb/s
Width                                    : 1 920 pixels
Height                                   : 1 080 pixels
Display aspect ratio                     : 16:9
Frame rate                               : 29.970 (30000/1001) FPS
Color space                              : YUV
Chroma subsampling                       : 4:2:0
Bit depth                                : 8 bits
Scan type                                : MBAFF
Scan type, store method                  : Interleaved fields
Scan order                               : Top Field First
Bits/(Pixel*Frame)                       : 0.142
Stream size                              : 4.65 GiB (91%)

Audio
ID                                       : 1329 (0x531)
Menu ID                                  : 1336 (0x538)
Format                                   : AC-3
Format/Info                              : Audio Coding 3
Format settings, Endianness              : Big
Codec ID                                 : 129
Duration                                 : 1 h 15 min
Bit rate mode                            : Constant
Bit rate                                 : 384 kb/s
Channel(s)                               : 6 channels
Channel positions                        : Front: L C R, Side: L R, LFE
Sampling rate                            : 48.0 kHz
Frame rate                               : 31.250 FPS (1536 spf)
Bit depth                                : 16 bits
Compression mode                         : Lossy
Stream size                              : 207 MiB (4%)
Language                                 : English
Service kind                             : Complete Main
Download
***Hidden content cannot be quoted.***
yeah