HDTV Tori Kelly Ft. Hozier - Black Bird (VH1 Big Music in 2015 You Oughta Know) [HDTV-1080i]

NCURBAN

Well-Known Member
Administrative
May 25, 2016
3,347
3,885
113
Tori Kelly Ft. Hozier - Black Bird (VH1 Big Music in 2015 You Oughta Know) [HDTV-1080i]



Code:
Format                                   : MPEG-TS
File size                                : 356 MiB
Duration                                 : 3mn 44s
Overall bit rate mode                    : Variable
Overall bit rate                         : 13.3 Mbps
Law rating                               : TV-PG (L)

Video
ID                                       : 523 (0x20B)
Menu ID                                  : 1 (0x1)
Format                                   : MPEG Video
Format version                           : Version 2
Format profile                           : Main@High
Format settings, BVOP                    : Yes
Format settings, Matrix                  : Custom
Format settings, GOP                     : Variable
Format settings, picture structure       : Frame
Codec ID                                 : 2
Duration                                 : 3mn 43s
Bit rate mode                            : Variable
Bit rate                                 : 12.3 Mbps
Maximum bit rate                         : 25.0 Mbps
Width                                    : 1 920 pixels
Height                                   : 1 080 pixels
Display aspect ratio                     : 16:9
Frame rate                               : 29.970 fps
Color space                              : YUV
Chroma subsampling                       : 4:2:0
Bit depth                                : 8 bits
Scan type                                : Interlaced
Scan order                               : Top Field First
Compression mode                         : Lossy
Bits/(Pixel*Frame)                       : 0.198
Time code of first frame                 : 00:00:00;00
Time code source                         : Group of pictures header
GOP, Open/Closed                         : Open
GOP, Open/Closed of first frame          : Closed
Stream size                              : 328 MiB (92%)

Audio
ID                                       : 522 (0x20A)
Menu ID                                  : 1 (0x1)
Format                                   : AC-3
Format/Info                              : Audio Coding 3
Mode extension                           : CM (complete main)
Format settings, Endianness              : Big
Codec ID                                 : 129
Duration                                 : 3mn 43s
Bit rate mode                            : Constant
Bit rate                                 : 384 Kbps
Channel(s)                               : 2 channels
Channel positions                        : Front: L R
Sampling rate                            : 48.0 KHz
Compression mode                         : Lossy
Delay relative to video                  : -16ms
Stream size                              : 10.2 MiB (3%)
Language                                 : English

Download
You must reply before you can see the hidden data contained here.