HDTV Troye Sivan - WILD (The Tonight Show Starring Jimmy Fallon 2016) [HDTV-720p]-kmfan

NCURBAN

Well-Known Member
Administrative
May 25, 2016
3,347
3,853
113
Troye Sivan - WILD (The Tonight Show Starring Jimmy Fallon 2016) [HDTV-720p]-kmfan



Code:
Format                                   : MPEG-TS
File size                                : 400 MiB
Duration                                 : 6mn 8s
Overall bit rate mode                    : Variable
Overall bit rate                         : 9 102 Kbps

Video
ID                                       : 5411 (0x1523)
Menu ID                                  : 10376 (0x2888)
Format                                   : AVC
Format/Info                              : Advanced Video Codec
Format profile                           : High@L4
Format settings, CABAC                   : Yes
Format settings, ReFrames                : 4 frames
Codec ID                                 : 27
Duration                                 : 6mn 8s
Bit rate                                 : 7 812 Kbps
Width                                    : 1 280 pixels
Height                                   : 720 pixels
Display aspect ratio                     : 16:9
Frame rate                               : 50.000 fps
Color space                              : YUV
Chroma subsampling                       : 4:2:0
Bit depth                                : 8 bits
Scan type                                : Progressive
Bits/(Pixel*Frame)                       : 0.170
Stream size                              : 343 MiB (86%)

Audio #1
ID                                       : 5412 (0x1524)
Menu ID                                  : 10376 (0x2888)
Format                                   : MPEG Audio
Format version                           : Version 1
Format profile                           : Layer 2
Codec ID                                 : 3
Duration                                 : 6mn 8s
Bit rate mode                            : Constant
Bit rate                                 : 192 Kbps
Channel(s)                               : 2 channels
Sampling rate                            : 48.0 KHz
Compression mode                         : Lossy
Delay relative to video                  : 70ms
Stream size                              : 8.44 MiB (2%)
Language                                 : German

Audio #2
ID                                       : 5413 (0x1525)
Menu ID                                  : 10376 (0x2888)
Format                                   : MPEG Audio
Format version                           : Version 1
Format profile                           : Layer 2
Codec ID                                 : 3
Duration                                 : 6mn 8s
Bit rate mode                            : Constant
Bit rate                                 : 192 Kbps
Channel(s)                               : 2 channels
Sampling rate                            : 48.0 KHz
Compression mode                         : Lossy
Delay relative to video                  : 70ms
Stream size                              : 8.44 MiB (2%)
descriptor_tag_extension                 : 6

Audio #3
ID                                       : 5416 (0x1528)
Menu ID                                  : 10376 (0x2888)
Format                                   : AC-3
Format/Info                              : Audio Coding 3
Mode extension                           : CM (complete main)
Format settings, Endianness              : Big
Codec ID                                 : 6
Duration                                 : 6mn 8s
Bit rate mode                            : Constant
Bit rate                                 : 448 Kbps
Channel(s)                               : 2 channels
Channel positions                        : Front: L R
Sampling rate                            : 48.0 KHz
Compression mode                         : Lossy
Delay relative to video                  : 122ms
Stream size                              : 19.7 MiB (5%)
Language                                 : German

Text
ID                                       : 5414 (0x1526)-100
Menu ID                                  : 10376 (0x2888)
Format                                   : Teletext
Language                                 : German

Menu
ID                                       : 5410 (0x1522)
Menu ID                                  : 10376 (0x2888)
Duration                                 : 6mn 8s
List                                     : 5411 (0x1523) (AVC) / 5412 (0x1524) (MPEG Audio, German) / 5414 (0x1526) () / 5413 (0x1525) (MPEG Audio) / 5416 (0x1528) (AC-3, German)
Language                                 :  / German /  /  / German

Download
You must reply before you can see the hidden data contained here.