HDTV VA - Christmas Carpool Karaoke (The Late Late Show with James Corden 2016) [HDTV-720p]

NCURBAN

Well-Known Member
Administrative
May 25, 2016
3,347
3,618
113
VA - Christmas Carpool Karaoke (The Late Late Show with James Corden 2016) [HDTV-720p]




Original network: CBS
Gener: Variety show
Stars: Mariah Carey, Adele, Lady Gaga, Demi Lovato, Nick Jones, Selena Gomez, Gwen Stefani, Cold Play
Date: Dec 15, 2017
Code:
Format                                   : Matroska
Format version                           : Version 2
File size                                : 238 MiB
Duration                                 : 4 min 19 s
Overall bit rate                         : 7 684 kb/s
Writing application                      : Lavf54.63.104
Writing library                          : Lavf54.63.104 / Lavf54.63.104

Video
ID                                       : 1
Format                                   : AVC
Format/Info                              : Advanced Video Codec
Format profile                           : High@L4.1
Format settings, CABAC                   : Yes
Format settings, ReFrames                : 5 frames
Codec ID                                 : V_MPEG4/ISO/AVC
Duration                                 : 4 min 19 s
Bit rate                                 : 7 147 kb/s
Width                                    : 1 280 pixels
Height                                   : 720 pixels
Display aspect ratio                     : 16:9
Frame rate mode                          : Constant
Frame rate                               : 59.940 (60000/1001) FPS
Color space                              : YUV
Chroma subsampling                       : 4:2:0
Bit depth                                : 8 bits
Scan type                                : Progressive
Bits/(Pixel*Frame)                       : 0.129
Stream size                              : 221 MiB (93%)
Default                                  : No
Forced                                   : No
Color range                              : Limited
Matrix coefficients                      : BT.709

Audio
ID                                       : 2
Format                                   : AC-3
Format/Info                              : Audio Coding 3
Mode extension                           : CM (complete main)
Format settings, Endianness              : Big
Codec ID                                 : A_AC3
Duration                                 : 4 min 19 s
Bit rate mode                            : Constant
Bit rate                                 : 384 kb/s
Channel(s)                               : 6 channels
Channel positions                        : Front: L C R, Side: L R, LFE
Sampling rate                            : 48.0 kHz
Frame rate                               : 31.250 FPS (1536 spf)
Bit depth                                : 16 bits
Compression mode                         : Lossy
Stream size                              : 11.9 MiB (5%)
Language                                 : English
Default                                  : Yes
Forced                                   : No
Download
You must reply before you can see the hidden data contained here.
 
Last edited:

jcs202

New Member
Registered
Jan 3, 2020
26
1
3
38
VA - Christmas Carpool Karaoke (The Late Late Show with James Corden 2016) [HDTV-720p]






Code:
Format                                   : Matroska
Format version                           : Version 2
File size                                : 238 MiB
Duration                                 : 4 min 19 s
Overall bit rate                         : 7 684 kb/s
Writing application                      : Lavf54.63.104
Writing library                          : Lavf54.63.104 / Lavf54.63.104

Video
ID                                       : 1
Format                                   : AVC
Format/Info                              : Advanced Video Codec
Format profile                           : High@L4.1
Format settings, CABAC                   : Yes
Format settings, ReFrames                : 5 frames
Codec ID                                 : V_MPEG4/ISO/AVC
Duration                                 : 4 min 19 s
Bit rate                                 : 7 147 kb/s
Width                                    : 1 280 pixels
Height                                   : 720 pixels
Display aspect ratio                     : 16:9
Frame rate mode                          : Constant
Frame rate                               : 59.940 (60000/1001) FPS
Color space                              : YUV
Chroma subsampling                       : 4:2:0
Bit depth                                : 8 bits
Scan type                                : Progressive
Bits/(Pixel*Frame)                       : 0.129
Stream size                              : 221 MiB (93%)
Default                                  : No
Forced                                   : No
Color range                              : Limited
Matrix coefficients                      : BT.709

Audio
ID                                       : 2
Format                                   : AC-3
Format/Info                              : Audio Coding 3
Mode extension                           : CM (complete main)
Format settings, Endianness              : Big
Codec ID                                 : A_AC3
Duration                                 : 4 min 19 s
Bit rate mode                            : Constant
Bit rate                                 : 384 kb/s
Channel(s)                               : 6 channels
Channel positions                        : Front: L C R, Side: L R, LFE
Sampling rate                            : 48.0 kHz
Frame rate                               : 31.250 FPS (1536 spf)
Bit depth                                : 16 bits
Compression mode                         : Lossy
Stream size                              : 11.9 MiB (5%)
Language                                 : English
Default                                  : Yes
Forced                                   : No
Download
***Hidden content cannot be quoted.***