HDTV Victoria Justice & Pierson Fode - Interview (Good Day New York 2015) [HDTV-720p]-TrollHD

NCURBAN

Well-Known Member
Administrative
May 25, 2016
3,358
4,092
113
Victoria Justice & Pierson Fode - Interview (Good Day New York 2015) [HDTV-720p]-TrollHD






Tv Show: FOX
At: Good Day New York
Date: 2015/09/16
Code:
Format                                   : MPEG-TS
File size                                : 753 MiB
Duration                                 : 8 min 18 s
Overall bit rate mode                    : Variable
Overall bit rate                         : 12.7 Mb/s

Video
ID                                       : 7551 (0x1D7F)
Menu ID                                  : 1028 (0x404)
Format                                   : MPEG Video
Format version                           : Version 2
Format profile                           : Main@High
Format settings, BVOP                    : Yes
Format settings, Matrix                  : Custom
Format settings, GOP                     : M=3, N=60
Codec ID                                 : 2
Duration                                 : 8 min 18 s
Bit rate mode                            : Variable
Bit rate                                 : 11.4 Mb/s
Maximum bit rate                         : 24.0 Mb/s
Width                                    : 1 280 pixels
Height                                   : 720 pixels
Display aspect ratio                     : 16:9
Active Format Description                : Pillarbox 4:3 image
Frame rate                               : 59.940 (60000/1001) FPS
Color space                              : YUV
Chroma subsampling                       : 4:2:0
Bit depth                                : 8 bits
Scan type                                : Progressive
Compression mode                         : Lossy
Bits/(Pixel*Frame)                       : 0.207
Time code of first frame                 : 00:00:00;00
Time code source                         : Group of pictures header
GOP, Open/Closed                         : Open
Stream size                              : 677 MiB (90%)

Audio #1
ID                                       : 7552 (0x1D80)
Menu ID                                  : 1028 (0x404)
Format                                   : AC-3
Format/Info                              : Audio Coding 3
Mode extension                           : CM (complete main)
Format settings, Endianness              : Big
Codec ID                                 : 129
Duration                                 : 8 min 18 s
Bit rate mode                            : Constant
Bit rate                                 : 448 kb/s
Channel(s)                               : 6 channels
Channel positions                        : Front: L C R, Side: L R, LFE
Sampling rate                            : 48.0 kHz
Frame rate                               : 31.250 FPS (1536 spf)
Bit depth                                : 16 bits
Compression mode                         : Lossy
Delay relative to video                  : 29 ms
Stream size                              : 26.6 MiB (4%)
Language                                 : English
Download
You must reply before you can see the hidden data contained here.