HDTV Zara Larsson - Ain't My Fault (New Pop Festival 2016) (HDTV-720p)-HDMania

NCURBAN

Well-Known Member
Administrative
May 25, 2016
3,347
3,618
113
Zara Larsson - Ain't My Fault (New Pop Festival 2016) (HDTV-720p)-HDMania



Code:
Format                                   : MPEG-TS
File size                                : 470 MiB
Duration                                 : 5mn 9s
Overall bit rate mode                    : Variable
Overall bit rate                         : 12.7 Mbps

Video
ID                                       : 525 (0x20D)
Menu ID                                  : 1 (0x1)
Format                                   : MPEG Video
Format version                           : Version 2
Format profile                           : Main@High
Format settings, BVOP                    : Yes
Format settings, Matrix                  : Custom
Format settings, GOP                     : M=3, N=15
Format settings, picture structure       : Frame
Codec ID                                 : 2
Duration                                 : 5mn 9s
Bit rate mode                            : Variable
Bit rate                                 : 11.6 Mbps
Maximum bit rate                         : 24.0 Mbps
Width                                    : 1 920 pixels
Height                                   : 1 080 pixels
Display aspect ratio                     : 16:9
Frame rate                               : 29.970 fps
Color space                              : YUV
Chroma subsampling                       : 4:2:0
Bit depth                                : 8 bits
Scan type                                : Interlaced
Scan order                               : Top Field First
Compression mode                         : Lossy
Bits/(Pixel*Frame)                       : 0.187
Time code of first frame                 : 00:00:00;00
Time code source                         : Group of pictures header
GOP, Open/Closed                         : Open
GOP, Open/Closed of first frame          : Closed
Stream size                              : 429 MiB (91%)

Audio
ID                                       : 523 (0x20B)
Menu ID                                  : 1 (0x1)
Format                                   : AC-3
Format/Info                              : Audio Coding 3
Mode extension                           : CM (complete main)
Format settings, Endianness              : Big
Codec ID                                 : 129
Duration                                 : 5mn 9s
Bit rate mode                            : Constant
Bit rate                                 : 448 Kbps
Channel(s)                               : 6 channels
Channel positions                        : Front: L C R, Side: L R, LFE
Sampling rate                            : 48.0 KHz
Compression mode                         : Lossy
Delay relative to video                  : 27ms
Stream size                              : 16.5 MiB (4%)
Language                                 : English

Download
You must reply before you can see the hidden data contained here.