HDTV Zara Larsson - Never Forget You (The Late Late Show with James Corden 2016) (HDTV-1080i)

NCURBAN

Well-Known Member
Administrative
May 25, 2016
3,347
3,593
113
Zara Larsson - Never Forget You (The Late Late Show with James Corden 2016) (HDTV-1080i)



Code:
Format                                   : Matroska
Format version                           : Version 4 / Version 2
File size                                : 464 MiB
Duration                                 : 4mn 40s
Overall bit rate mode                    : Variable
Overall bit rate                         : 13.9 Mbps
Encoded date                             : UTC 2016-09-24 11:05:45
Writing application                      : mkvmerge v8.4.0 ('A better way to fly') 64bit
Writing library                          : libebml v1.3.1 + libmatroska v1.4.2

Video
ID                                       : 1
Format                                   : MPEG Video
Format version                           : Version 2
Format profile                           : Main@High
Format settings, BVOP                    : Yes
Format settings, Matrix                  : Custom
Format settings, GOP                     : M=3, N=15
Format settings, picture structure       : Frame
Codec ID                                 : V_MPEG2
Codec ID/Info                            : MPEG 1 or 2 Video
Duration                                 : 4mn 40s
Bit rate mode                            : Variable
Bit rate                                 : 13.2 Mbps
Maximum bit rate                         : 24.0 Mbps
Width                                    : 1 920 pixels
Height                                   : 1 080 pixels
Display aspect ratio                     : 16:9
Frame rate mode                          : Constant
Frame rate                               : 29.970 fps
Color space                              : YUV
Chroma subsampling                       : 4:2:0
Bit depth                                : 8 bits
Scan type                                : Interlaced
Scan order                               : Top Field First
Compression mode                         : Lossy
Bits/(Pixel*Frame)                       : 0.212
Stream size                              : 440 MiB (95%)
Default                                  : Yes
Forced                                   : No
DURATION                                 : 00:04:40.447000000
NUMBER_OF_FRAMES                         : 8405
NUMBER_OF_BYTES                          : 470888333
_STATISTICS_WRITING_APP                  : mkvmerge v8.4.0 ('A better way to fly') 64bit
_STATISTICS_WRITING_DATE_UTC             : 2016-09-24 11:05:45
_STATISTICS_TAGS                         : BPS DURATION NUMBER_OF_FRAMES NUMBER_OF_BYTES

Audio
ID                                       : 2
Format                                   : AC-3
Format/Info                              : Audio Coding 3
Mode extension                           : CM (complete main)
Format settings, Endianness              : Big
Codec ID                                 : A_AC3
Duration                                 : 4mn 40s
Bit rate mode                            : Constant
Bit rate                                 : 448 Kbps
Channel(s)                               : 6 channels
Channel positions                        : Front: L C R, Side: L R, LFE
Sampling rate                            : 48.0 KHz
Compression mode                         : Lossy
Delay relative to video                  : 15ms
Stream size                              : 15.0 MiB (3%)
Language                                 : English
Default                                  : Yes
Forced                                   : No
DURATION                                 : 00:04:40.448000000
NUMBER_OF_FRAMES                         : 8764
NUMBER_OF_BYTES                          : 15705088
_STATISTICS_WRITING_APP                  : mkvmerge v8.4.0 ('A better way to fly') 64bit
_STATISTICS_WRITING_DATE_UTC             : 2016-09-24 11:05:45
_STATISTICS_TAGS                         : BPS DURATION NUMBER_OF_FRAMES NUMBER_OF_BYTES

Download
You must reply before you can see the hidden data contained here.