HDTV Zara Larsson - So Good (The Ellen DeGeneres Show 2017) [HDTV-1080i]

NCURBAN

Well-Known Member
Administrative
May 25, 2016
3,347
3,599
113
Zara Larsson - So Good (The Ellen DeGeneres Show 2017) [HDTV-1080i]



Genre: Pop
At: The Ellen DeGeneres Show
Date: Feb 07, 2017
Code:
Format                                   : MPEG-TS
File size                                : 336 MiB
Duration                                 : 3 min 23 s
Overall bit rate mode                    : Variable
Overall bit rate                         : 13.9 Mb/s
Movie name                               : Ellen DeGeneres Show, The
Law rating                               : TV-PG

Video
ID                                       : 627 (0x273)
Menu ID                                  : 1 (0x1)
Format                                   : MPEG Video
Format version                           : Version 2
Format profile                           : Main@High
Format settings, BVOP                    : Yes
Format settings, Matrix                  : Custom
Format settings, GOP                     : M=3, N=15
Format settings, picture structure       : Frame
Codec ID                                 : 2
Duration                                 : 3 min 23 s
Bit rate mode                            : Variable
Bit rate                                 : 12.7 Mb/s
Maximum bit rate                         : 24.0 Mb/s
Width                                    : 1 920 pixels
Height                                   : 1 080 pixels
Display aspect ratio                     : 16:9
Frame rate                               : 29.970 (30000/1001) FPS
Color space                              : YUV
Chroma subsampling                       : 4:2:0
Bit depth                                : 8 bits
Scan type                                : Interlaced
Scan order                               : Top Field First
Compression mode                         : Lossy
Bits/(Pixel*Frame)                       : 0.205
Time code of first frame                 : 00:00:00;00
Time code source                         : Group of pictures header
GOP, Open/Closed                         : Open
GOP, Open/Closed of first frame          : Closed
Stream size                              : 308 MiB (92%)

Audio
ID                                       : 625 (0x271)
Menu ID                                  : 1 (0x1)
Format                                   : AC-3
Format/Info                              : Audio Coding 3
Mode extension                           : CM (complete main)
Format settings, Endianness              : Big
Codec ID                                 : 129
Duration                                 : 3 min 23 s
Bit rate mode                            : Constant
Bit rate                                 : 448 kb/s
Channel(s)                               : 6 channels
Channel positions                        : Front: L C R, Side: L R, LFE
Sampling rate                            : 48.0 kHz
Frame rate                               : 31.250 FPS (1536 spf)
Bit depth                                : 16 bits
Compression mode                         : Lossy
Delay relative to video                  : 25 ms
Stream size                              : 10.8 MiB (3%)
Language                                 : English

Download
You must reply before you can see the hidden data contained here.