ProRes Zedd - I Want You To Know (ft. Selena Gomez) [PCM-Master-ProRes-1080p]

NCURBAN

Well-Known Member
Administrative
May 25, 2016
3,347
3,595
113
Zedd - I Want You To Know (ft. Selena Gomez) [PCM-Master-ProRes-1080p]



Genre: Dance
Released: Mar 10, 2015
℗ 2015 Interscope Records

Code:
Format                                   : MPEG-4
Format profile                           : QuickTime
Codec ID                                 : qt  
File size                                : 3.84 GiB
Duration                                 : 4mn 7s
Overall bit rate mode                    : Variable
Overall bit rate                         : 133 Mbps
Encoded date                             : UTC 2016-10-10 19:23:53
Tagged date                              : UTC 2016-10-02 19:29:53
Writing library                          : Apple QuickTime
©TIM                                     : 00:00:14:03
©TSC                                     : 2997
©TSZ                                     : 125

Video
ID                                       : 1
Format                                   : ProRes
Format version                           : Version 0
Format profile                           : 422 HQ
Codec ID                                 : apch
Duration                                 : 4mn 7s
Bit rate mode                            : Variable
Bit rate                                 : 132 Mbps
Width                                    : 1 920 pixels
Height                                   : 1 080 pixels
Display aspect ratio                     : 16:9
Frame rate mode                          : Constant
Frame rate                               : 23.976 fps
Color space                              : YUV
Chroma subsampling                       : 4:2:2
Scan type                                : Progressive
Bits/(Pixel*Frame)                       : 2.650
Stream size                              : 3.80 GiB (99%)
Writing library                          : Apple
Language                                 : English
Encoded date                             : UTC 2016-10-10 19:23:53
Tagged date                              : UTC 2016-10-10 19:23:53
Color primaries                          : BT.709
Transfer characteristics                 : BT.709
Matrix coefficients                      : BT.709

Audio
ID                                       : 2
Format                                   : PCM
Format settings, Endianness              : Little
Format settings, Sign                    : Signed
Codec ID                                 : sowt
Duration                                 : 4mn 7s
Bit rate mode                            : Constant
Bit rate                                 : 1 536 Kbps
Channel(s)                               : 2 channels
Channel positions                        : Front: L R
Sampling rate                            : 48.0 KHz
Bit depth                                : 16 bits
Stream size                              : 45.3 MiB (1%)
Language                                 : English
Encoded date                             : UTC 2016-10-10 19:23:53
Tagged date                              : UTC 2016-10-10 19:23:53

Download
You must reply before you can see the hidden data contained here.
 

jorjais

Member
Registered
Mar 17, 2018
88
1
8
46
Zedd - I Want You To Know (ft. Selena Gomez) [PCM-Master-ProRes-1080p]



Genre: Dance
Released: Mar 10, 2015
℗ 2015 Interscope Records

Code:
Format                                   : MPEG-4
Format profile                           : QuickTime
Codec ID                                 : qt 
File size                                : 3.84 GiB
Duration                                 : 4mn 7s
Overall bit rate mode                    : Variable
Overall bit rate                         : 133 Mbps
Encoded date                             : UTC 2016-10-10 19:23:53
Tagged date                              : UTC 2016-10-02 19:29:53
Writing library                          : Apple QuickTime
©TIM                                     : 00:00:14:03
©TSC                                     : 2997
©TSZ                                     : 125

Video
ID                                       : 1
Format                                   : ProRes
Format version                           : Version 0
Format profile                           : 422 HQ
Codec ID                                 : apch
Duration                                 : 4mn 7s
Bit rate mode                            : Variable
Bit rate                                 : 132 Mbps
Width                                    : 1 920 pixels
Height                                   : 1 080 pixels
Display aspect ratio                     : 16:9
Frame rate mode                          : Constant
Frame rate                               : 23.976 fps
Color space                              : YUV
Chroma subsampling                       : 4:2:2
Scan type                                : Progressive
Bits/(Pixel*Frame)                       : 2.650
Stream size                              : 3.80 GiB (99%)
Writing library                          : Apple
Language                                 : English
Encoded date                             : UTC 2016-10-10 19:23:53
Tagged date                              : UTC 2016-10-10 19:23:53
Color primaries                          : BT.709
Transfer characteristics                 : BT.709
Matrix coefficients                      : BT.709

Audio
ID                                       : 2
Format                                   : PCM
Format settings, Endianness              : Little
Format settings, Sign                    : Signed
Codec ID                                 : sowt
Duration                                 : 4mn 7s
Bit rate mode                            : Constant
Bit rate                                 : 1 536 Kbps
Channel(s)                               : 2 channels
Channel positions                        : Front: L R
Sampling rate                            : 48.0 KHz
Bit depth                                : 16 bits
Stream size                              : 45.3 MiB (1%)
Language                                 : English
Encoded date                             : UTC 2016-10-10 19:23:53
Tagged date                              : UTC 2016-10-10 19:23:53

Download
***Hidden content cannot be quoted.***
thanks
 

xXIMANXx

Member
Registered
Oct 31, 2018
376
6
18
20
Zedd - I Want You To Know (ft. Selena Gomez) [PCM-Master-ProRes-1080p]



Genre: Dance
Released: Mar 10, 2015
℗ 2015 Interscope Records

Code:
Format                                   : MPEG-4
Format profile                           : QuickTime
Codec ID                                 : qt 
File size                                : 3.84 GiB
Duration                                 : 4mn 7s
Overall bit rate mode                    : Variable
Overall bit rate                         : 133 Mbps
Encoded date                             : UTC 2016-10-10 19:23:53
Tagged date                              : UTC 2016-10-02 19:29:53
Writing library                          : Apple QuickTime
©TIM                                     : 00:00:14:03
©TSC                                     : 2997
©TSZ                                     : 125

Video
ID                                       : 1
Format                                   : ProRes
Format version                           : Version 0
Format profile                           : 422 HQ
Codec ID                                 : apch
Duration                                 : 4mn 7s
Bit rate mode                            : Variable
Bit rate                                 : 132 Mbps
Width                                    : 1 920 pixels
Height                                   : 1 080 pixels
Display aspect ratio                     : 16:9
Frame rate mode                          : Constant
Frame rate                               : 23.976 fps
Color space                              : YUV
Chroma subsampling                       : 4:2:2
Scan type                                : Progressive
Bits/(Pixel*Frame)                       : 2.650
Stream size                              : 3.80 GiB (99%)
Writing library                          : Apple
Language                                 : English
Encoded date                             : UTC 2016-10-10 19:23:53
Tagged date                              : UTC 2016-10-10 19:23:53
Color primaries                          : BT.709
Transfer characteristics                 : BT.709
Matrix coefficients                      : BT.709

Audio
ID                                       : 2
Format                                   : PCM
Format settings, Endianness              : Little
Format settings, Sign                    : Signed
Codec ID                                 : sowt
Duration                                 : 4mn 7s
Bit rate mode                            : Constant
Bit rate                                 : 1 536 Kbps
Channel(s)                               : 2 channels
Channel positions                        : Front: L R
Sampling rate                            : 48.0 KHz
Bit depth                                : 16 bits
Stream size                              : 45.3 MiB (1%)
Language                                 : English
Encoded date                             : UTC 2016-10-10 19:23:53
Tagged date                              : UTC 2016-10-10 19:23:53

Download
***Hidden content cannot be quoted.***
 

NhatDoan

New Member
Registered
Jun 22, 2019
10
0
1
27
ThaNKS!
Zedd - I Want You To Know (ft. Selena Gomez) [PCM-Master-ProRes-1080p]



Genre: Dance
Released: Mar 10, 2015
℗ 2015 Interscope Records

Code:
Format                                   : MPEG-4
Format profile                           : QuickTime
Codec ID                                 : qt 
File size                                : 3.84 GiB
Duration                                 : 4mn 7s
Overall bit rate mode                    : Variable
Overall bit rate                         : 133 Mbps
Encoded date                             : UTC 2016-10-10 19:23:53
Tagged date                              : UTC 2016-10-02 19:29:53
Writing library                          : Apple QuickTime
©TIM                                     : 00:00:14:03
©TSC                                     : 2997
©TSZ                                     : 125

Video
ID                                       : 1
Format                                   : ProRes
Format version                           : Version 0
Format profile                           : 422 HQ
Codec ID                                 : apch
Duration                                 : 4mn 7s
Bit rate mode                            : Variable
Bit rate                                 : 132 Mbps
Width                                    : 1 920 pixels
Height                                   : 1 080 pixels
Display aspect ratio                     : 16:9
Frame rate mode                          : Constant
Frame rate                               : 23.976 fps
Color space                              : YUV
Chroma subsampling                       : 4:2:2
Scan type                                : Progressive
Bits/(Pixel*Frame)                       : 2.650
Stream size                              : 3.80 GiB (99%)
Writing library                          : Apple
Language                                 : English
Encoded date                             : UTC 2016-10-10 19:23:53
Tagged date                              : UTC 2016-10-10 19:23:53
Color primaries                          : BT.709
Transfer characteristics                 : BT.709
Matrix coefficients                      : BT.709

Audio
ID                                       : 2
Format                                   : PCM
Format settings, Endianness              : Little
Format settings, Sign                    : Signed
Codec ID                                 : sowt
Duration                                 : 4mn 7s
Bit rate mode                            : Constant
Bit rate                                 : 1 536 Kbps
Channel(s)                               : 2 channels
Channel positions                        : Front: L R
Sampling rate                            : 48.0 KHz
Bit depth                                : 16 bits
Stream size                              : 45.3 MiB (1%)
Language                                 : English
Encoded date                             : UTC 2016-10-10 19:23:53
Tagged date                              : UTC 2016-10-10 19:23:53

Download
***Hidden content cannot be quoted.***
 

Raj

Member
Registered
Jul 3, 2019
67
0
6
29
Zedd - I Want You To Know (ft. Selena Gomez) [PCM-Master-ProRes-1080p]



Genre: Dance
Released: Mar 10, 2015
℗ 2015 Interscope Records

Code:
Format                                   : MPEG-4
Format profile                           : QuickTime
Codec ID                                 : qt 
File size                                : 3.84 GiB
Duration                                 : 4mn 7s
Overall bit rate mode                    : Variable
Overall bit rate                         : 133 Mbps
Encoded date                             : UTC 2016-10-10 19:23:53
Tagged date                              : UTC 2016-10-02 19:29:53
Writing library                          : Apple QuickTime
©TIM                                     : 00:00:14:03
©TSC                                     : 2997
©TSZ                                     : 125

Video
ID                                       : 1
Format                                   : ProRes
Format version                           : Version 0
Format profile                           : 422 HQ
Codec ID                                 : apch
Duration                                 : 4mn 7s
Bit rate mode                            : Variable
Bit rate                                 : 132 Mbps
Width                                    : 1 920 pixels
Height                                   : 1 080 pixels
Display aspect ratio                     : 16:9
Frame rate mode                          : Constant
Frame rate                               : 23.976 fps
Color space                              : YUV
Chroma subsampling                       : 4:2:2
Scan type                                : Progressive
Bits/(Pixel*Frame)                       : 2.650
Stream size                              : 3.80 GiB (99%)
Writing library                          : Apple
Language                                 : English
Encoded date                             : UTC 2016-10-10 19:23:53
Tagged date                              : UTC 2016-10-10 19:23:53
Color primaries                          : BT.709
Transfer characteristics                 : BT.709
Matrix coefficients                      : BT.709

Audio
ID                                       : 2
Format                                   : PCM
Format settings, Endianness              : Little
Format settings, Sign                    : Signed
Codec ID                                 : sowt
Duration                                 : 4mn 7s
Bit rate mode                            : Constant
Bit rate                                 : 1 536 Kbps
Channel(s)                               : 2 channels
Channel positions                        : Front: L R
Sampling rate                            : 48.0 KHz
Bit depth                                : 16 bits
Stream size                              : 45.3 MiB (1%)
Language                                 : English
Encoded date                             : UTC 2016-10-10 19:23:53
Tagged date                              : UTC 2016-10-10 19:23:53

Download
***Hidden content cannot be quoted.***
Thank you very much!
 

Raj

Member
Registered
Jul 3, 2019
67
0
6
29
Zedd - I Want You To Know (ft. Selena Gomez) [PCM-Master-ProRes-1080p]



Genre: Dance
Released: Mar 10, 2015
℗ 2015 Interscope Records

Code:
Format                                   : MPEG-4
Format profile                           : QuickTime
Codec ID                                 : qt 
File size                                : 3.84 GiB
Duration                                 : 4mn 7s
Overall bit rate mode                    : Variable
Overall bit rate                         : 133 Mbps
Encoded date                             : UTC 2016-10-10 19:23:53
Tagged date                              : UTC 2016-10-02 19:29:53
Writing library                          : Apple QuickTime
©TIM                                     : 00:00:14:03
©TSC                                     : 2997
©TSZ                                     : 125

Video
ID                                       : 1
Format                                   : ProRes
Format version                           : Version 0
Format profile                           : 422 HQ
Codec ID                                 : apch
Duration                                 : 4mn 7s
Bit rate mode                            : Variable
Bit rate                                 : 132 Mbps
Width                                    : 1 920 pixels
Height                                   : 1 080 pixels
Display aspect ratio                     : 16:9
Frame rate mode                          : Constant
Frame rate                               : 23.976 fps
Color space                              : YUV
Chroma subsampling                       : 4:2:2
Scan type                                : Progressive
Bits/(Pixel*Frame)                       : 2.650
Stream size                              : 3.80 GiB (99%)
Writing library                          : Apple
Language                                 : English
Encoded date                             : UTC 2016-10-10 19:23:53
Tagged date                              : UTC 2016-10-10 19:23:53
Color primaries                          : BT.709
Transfer characteristics                 : BT.709
Matrix coefficients                      : BT.709

Audio
ID                                       : 2
Format                                   : PCM
Format settings, Endianness              : Little
Format settings, Sign                    : Signed
Codec ID                                 : sowt
Duration                                 : 4mn 7s
Bit rate mode                            : Constant
Bit rate                                 : 1 536 Kbps
Channel(s)                               : 2 channels
Channel positions                        : Front: L R
Sampling rate                            : 48.0 KHz
Bit depth                                : 16 bits
Stream size                              : 45.3 MiB (1%)
Language                                 : English
Encoded date                             : UTC 2016-10-10 19:23:53
Tagged date                              : UTC 2016-10-10 19:23:53

Download
***Hidden content cannot be quoted.***
Thank you very much!
 

sasan

New Member
Registered
Aug 10, 2019
12
0
1
28
Zedd - I Want You To Know (ft. Selena Gomez) [PCM-Master-ProRes-1080p]



Genre: Dance
Released: Mar 10, 2015
℗ 2015 Interscope Records

Code:
Format                                   : MPEG-4
Format profile                           : QuickTime
Codec ID                                 : qt 
File size                                : 3.84 GiB
Duration                                 : 4mn 7s
Overall bit rate mode                    : Variable
Overall bit rate                         : 133 Mbps
Encoded date                             : UTC 2016-10-10 19:23:53
Tagged date                              : UTC 2016-10-02 19:29:53
Writing library                          : Apple QuickTime
©TIM                                     : 00:00:14:03
©TSC                                     : 2997
©TSZ                                     : 125

Video
ID                                       : 1
Format                                   : ProRes
Format version                           : Version 0
Format profile                           : 422 HQ
Codec ID                                 : apch
Duration                                 : 4mn 7s
Bit rate mode                            : Variable
Bit rate                                 : 132 Mbps
Width                                    : 1 920 pixels
Height                                   : 1 080 pixels
Display aspect ratio                     : 16:9
Frame rate mode                          : Constant
Frame rate                               : 23.976 fps
Color space                              : YUV
Chroma subsampling                       : 4:2:2
Scan type                                : Progressive
Bits/(Pixel*Frame)                       : 2.650
Stream size                              : 3.80 GiB (99%)
Writing library                          : Apple
Language                                 : English
Encoded date                             : UTC 2016-10-10 19:23:53
Tagged date                              : UTC 2016-10-10 19:23:53
Color primaries                          : BT.709
Transfer characteristics                 : BT.709
Matrix coefficients                      : BT.709

Audio
ID                                       : 2
Format                                   : PCM
Format settings, Endianness              : Little
Format settings, Sign                    : Signed
Codec ID                                 : sowt
Duration                                 : 4mn 7s
Bit rate mode                            : Constant
Bit rate                                 : 1 536 Kbps
Channel(s)                               : 2 channels
Channel positions                        : Front: L R
Sampling rate                            : 48.0 KHz
Bit depth                                : 16 bits
Stream size                              : 45.3 MiB (1%)
Language                                 : English
Encoded date                             : UTC 2016-10-10 19:23:53
Tagged date                              : UTC 2016-10-10 19:23:53

Download
***Hidden content cannot be quoted.***
grsacda